<?xml version="1.0" standalone="no"?>
<!DOCTYPE svg PUBLIC "-//W3C//DTD SVG 1.1//EN" "http://www.w3.org/Graphics/SVG/1.1/DTD/svg11.dtd" >
<svg xmlns="http://www.w3.org/2000/svg" xmlns:xlink="http://www.w3.org/1999/xlink" version="1.1">
<metadata>
Created by FontForge 20190801 at Mon Nov 28 16:07:59 2016
 By www-data
Copyright \(c\) 2013 by Rick Banks. All rights reserved.
</metadata>
<defs>
<font id="F37Ginger-Regular" horiz-adv-x="626" >
  <font-face 
    font-family="F37 Ginger"
    font-weight="400"
    font-stretch="normal"
    units-per-em="1000"
    panose-1="0 0 5 0 0 0 0 0 0 0"
    ascent="800"
    descent="-200"
    x-height="475"
    cap-height="740"
    bbox="-153 -262 1271 997"
    underline-thickness="50"
    underline-position="-100"
    stemh="94"
    stemv="99"
    unicode-range="U+0020-FB02"
  />
<missing-glyph horiz-adv-x="729" 
d="M100 0v740h529v-740h-529zM532 637h-335v-535h335v535z" />
    <glyph glyph-name="fi" unicode="fi" horiz-adv-x="574" 
d="M397 0v384h-213v-384h-97v384h-70v91h70v110c0 91 42 155 146 155c26 0 56 -4 79 -11v-86c-10 3 -37 7 -57 7c-45 0 -71 -20 -71 -80v-95h309v-475h-96zM445 569c-35 0 -62 27 -62 62s27 62 62 62s62 -27 62 -62s-27 -62 -62 -62z" />
    <glyph glyph-name="fl" unicode="fl" horiz-adv-x="587" 
d="M576 -6c-16 -4 -33 -7 -53 -7c-78 0 -126 47 -126 134v263h-213v-384h-97v384h-70v91h70v110c0 91 42 155 146 155c26 0 56 -4 79 -11v-86c-10 3 -37 7 -57 7c-45 0 -71 -20 -71 -80v-95h213v265h96v-589c0 -51 12 -74 59 -74c6 0 15 0 24 1v-84z" />
    <glyph glyph-name=".notdef" horiz-adv-x="729" 
d="M100 0v740h529v-740h-529zM532 637h-335v-535h335v535z" />
    <glyph glyph-name="A" unicode="A" horiz-adv-x="698" 
d="M584 0l-66 173h-340l-66 -173h-110l291 740h112l291 -740h-112zM349 616l-134 -347h266z" />
    <glyph glyph-name="Aacute" unicode="&#xc1;" horiz-adv-x="698" 
d="M268 806l-44 75l212 115l46 -82zM584 0l-66 173h-340l-66 -173h-110l291 740h112l291 -740h-112zM349 616l-134 -347h266z" />
    <glyph glyph-name="Acircumflex" unicode="&#xc2;" horiz-adv-x="698" 
d="M465 806l-115 112l-118 -112l-59 59l136 131h84l132 -131zM584 0l-66 173h-340l-66 -173h-110l291 740h112l291 -740h-112zM349 616l-134 -347h266z" />
    <glyph glyph-name="Adieresis" unicode="&#xc4;" horiz-adv-x="698" 
d="M243 823c-36 0 -65 28 -65 65s29 64 65 64c37 0 65 -27 65 -64s-28 -65 -65 -65zM455 823c-37 0 -66 28 -66 65s29 64 66 64c36 0 64 -27 64 -64s-28 -65 -64 -65zM584 0l-66 173h-340l-66 -173h-110l291 740h112l291 -740h-112zM349 616l-134 -347h266z" />
    <glyph glyph-name="Agrave" unicode="&#xc0;" horiz-adv-x="698" 
d="M423 806l-214 108l46 82l212 -115zM584 0l-66 173h-340l-66 -173h-110l291 740h112l291 -740h-112zM349 616l-134 -347h266z" />
    <glyph glyph-name="Aring" unicode="&#xc5;" horiz-adv-x="698" 
d="M455 889c0 -59 -49 -106 -107 -106s-106 48 -106 106c0 57 47 107 106 107s107 -48 107 -107zM393 889c0 25 -20 45 -45 45s-45 -21 -45 -45c0 -25 20 -45 45 -45c24 0 45 19 45 45zM584 0l-66 173h-340l-66 -173h-110l291 740h112l291 -740h-112zM349 616l-134 -347h266
z" />
    <glyph glyph-name="Atilde" unicode="&#xc3;" horiz-adv-x="698" 
d="M527 866c-30 -33 -66 -53 -104 -53c-55 0 -99 41 -143 41c-25 0 -46 -13 -64 -30l-46 67c29 27 67 48 107 48c57 0 97 -41 141 -41c23 0 47 12 68 33zM584 0l-66 173h-340l-66 -173h-110l291 740h112l291 -740h-112zM349 616l-134 -347h266z" />
    <glyph glyph-name="AE" unicode="&#xc6;" horiz-adv-x="998" 
d="M513 0v180h-287l-112 -180h-117l467 740h481v-97h-330v-209h274v-96h-274v-242h330v-96h-432zM513 637l-227 -361h227v361z" />
    <glyph glyph-name="B" unicode="B" horiz-adv-x="599" 
d="M85 0v740h205c157 0 245 -70 245 -194c0 -84 -41 -132 -106 -156c92 -22 135 -95 135 -183c0 -145 -118 -207 -266 -207h-213zM304 435c67 0 129 22 129 103c0 72 -50 106 -139 106h-107v-209h117zM295 96c95 0 167 31 167 120c0 84 -63 123 -169 123h-106v-243h108z" />
    <glyph glyph-name="C" unicode="C" horiz-adv-x="715" 
d="M684 97c-70 -68 -161 -110 -267 -110c-210 0 -385 167 -385 383c0 212 169 382 386 382c109 0 206 -43 277 -116l-73 -64c-53 56 -125 87 -202 87c-160 0 -286 -136 -286 -290c0 -157 130 -289 283 -289c78 0 149 34 200 84z" />
    <glyph glyph-name="Ccedilla" unicode="&#xc7;" horiz-adv-x="715" 
d="M341 -89l28 79c-189 23 -337 181 -337 380c0 212 169 382 386 382c109 0 206 -43 277 -116l-73 -64c-53 56 -125 87 -203 87c-159 0 -285 -136 -285 -291c0 -156 130 -288 285 -288c75 0 147 34 198 84l67 -67c-70 -68 -161 -110 -265 -110l-13 -32h16
c58 0 97 -35 97 -92c0 -65 -44 -101 -102 -101c-43 0 -95 22 -102 100h47c5 -43 32 -57 57 -57c32 0 52 23 52 56c0 31 -19 50 -57 50h-73z" />
    <glyph glyph-name="D" unicode="D" horiz-adv-x="718" 
d="M85 0v740h204c227 0 396 -140 396 -371c0 -230 -168 -369 -397 -369h-203zM282 96c168 0 301 81 301 272c0 200 -145 275 -313 275h-83v-547h95z" />
    <glyph glyph-name="Eth" unicode="&#xd0;" horiz-adv-x="718" 
d="M85 0v329h-77v97h77v314h204c227 0 396 -140 396 -371c0 -230 -168 -369 -397 -369h-203zM282 96c168 0 301 81 301 272c0 200 -145 275 -313 275h-83v-217h185v-97h-185v-233h95z" />
    <glyph glyph-name="E" unicode="E" horiz-adv-x="570" 
d="M85 0v740h432v-97h-330v-209h274v-96h-274v-242h330v-96h-432z" />
    <glyph glyph-name="Eacute" unicode="&#xc9;" horiz-adv-x="570" 
d="M234 806l-44 75l212 115l46 -82zM85 0v740h432v-97h-330v-209h274v-96h-274v-242h330v-96h-432z" />
    <glyph glyph-name="Ecircumflex" unicode="&#xca;" horiz-adv-x="570" 
d="M425 806l-115 112l-118 -112l-59 59l136 131h84l132 -131zM85 0v740h432v-97h-330v-209h274v-96h-274v-242h330v-96h-432z" />
    <glyph glyph-name="Edieresis" unicode="&#xcb;" horiz-adv-x="570" 
d="M200 823c-36 0 -65 28 -65 65s29 64 65 64c37 0 65 -27 65 -64s-28 -65 -65 -65zM412 823c-37 0 -66 28 -66 65s29 64 66 64c36 0 64 -27 64 -64s-28 -65 -64 -65zM85 0v740h432v-97h-330v-209h274v-96h-274v-242h330v-96h-432z" />
    <glyph glyph-name="Egrave" unicode="&#xc8;" horiz-adv-x="570" 
d="M374 806l-214 108l46 82l212 -115zM85 0v740h432v-97h-330v-209h274v-96h-274v-242h330v-96h-432z" />
    <glyph glyph-name="F" unicode="F" horiz-adv-x="552" 
d="M85 0v740h435v-97h-333v-209h276v-96h-276v-338h-102z" />
    <glyph glyph-name="G" unicode="G" horiz-adv-x="823" 
d="M760 348c0 -211 -133 -361 -341 -361c-218 0 -387 167 -387 381c0 215 170 385 386 385c111 0 213 -45 286 -120l-64 -71c-56 66 -141 97 -220 97c-162 0 -286 -131 -286 -292c0 -160 121 -287 286 -287c127 0 232 75 240 236h-263v96h363v-64z" />
    <glyph glyph-name="H" unicode="H" horiz-adv-x="774" 
d="M587 0v342h-400v-342h-102v740h102v-302h400v302h102v-740h-102z" />
    <glyph glyph-name="I" unicode="I" horiz-adv-x="272" 
d="M85 0v740h102v-740h-102z" />
    <glyph glyph-name="Iacute" unicode="&#xcd;" horiz-adv-x="272" 
d="M56 807l-44 75l212 115l46 -82zM85 0v740h102v-740h-102z" />
    <glyph glyph-name="Icircumflex" unicode="&#xce;" horiz-adv-x="272" 
d="M252 806l-115 112l-118 -112l-59 59l136 131h84l132 -131zM85 0v740h102v-740h-102z" />
    <glyph glyph-name="Idieresis" unicode="&#xcf;" horiz-adv-x="272" 
d="M30 823c-36 0 -65 28 -65 65s29 64 65 64c37 0 65 -27 65 -64s-28 -65 -65 -65zM242 823c-37 0 -66 28 -66 65s29 64 66 64c36 0 64 -27 64 -64s-28 -65 -64 -65zM85 0v740h102v-740h-102z" />
    <glyph glyph-name="Igrave" unicode="&#xcc;" horiz-adv-x="272" 
d="M192 807l-214 108l46 82l212 -115zM85 0v740h102v-740h-102z" />
    <glyph glyph-name="J" unicode="J" horiz-adv-x="267" 
d="M-45 -218v94h7c110 0 120 69 120 177v687h103v-680c0 -72 -1 -128 -28 -178c-37 -69 -106 -100 -196 -100h-6z" />
    <glyph glyph-name="K" unicode="K" horiz-adv-x="627" 
d="M492 0l-305 322v-322h-102v740h102v-332l285 332h126l-326 -370l352 -370h-132z" />
    <glyph glyph-name="L" unicode="L" horiz-adv-x="558" 
d="M85 0v740h102v-644h348v-96h-450z" />
    <glyph glyph-name="Ldot" unicode="&#x13f;" horiz-adv-x="558" 
d="M85 0v740h102v-644h348v-96h-450zM413 326c-35 0 -62 27 -62 62s27 61 62 61s61 -26 61 -61s-26 -62 -61 -62z" />
    <glyph glyph-name="Lslash" unicode="&#x141;" horiz-adv-x="558" 
d="M187 326v-230h348v-96h-450v253l-79 -57v99l79 57v388h102v-315l159 116v-99z" />
    <glyph glyph-name="M" unicode="M" horiz-adv-x="902" 
d="M714 0v610l-220 -323h-90l-217 323v-610h-102v740h139l225 -343l229 343h139v-740h-103z" />
    <glyph glyph-name="N" unicode="N" horiz-adv-x="825" 
d="M634 0l-447 606v-606h-102v740h132l421 -569v569h102v-740h-106z" />
    <glyph glyph-name="Ntilde" unicode="&#xd1;" horiz-adv-x="825" 
d="M601 866c-30 -33 -66 -53 -104 -53c-55 0 -99 41 -143 41c-25 0 -46 -13 -64 -30l-46 67c29 27 67 48 107 48c57 0 97 -41 141 -41c23 0 47 12 68 33zM634 0l-447 606v-606h-102v740h132l421 -569v569h102v-740h-106z" />
    <glyph glyph-name="O" unicode="O" horiz-adv-x="838" 
d="M805 370c0 -214 -171 -383 -386 -383c-213 0 -387 166 -387 382c0 211 166 384 386 384c217 0 387 -169 387 -383zM419 80c160 0 284 129 284 289c0 159 -123 290 -285 290c-163 0 -284 -134 -284 -291c0 -160 126 -288 285 -288z" />
    <glyph glyph-name="Oacute" unicode="&#xd3;" horiz-adv-x="838" 
d="M348 807l-44 75l212 115l46 -82zM805 370c0 -214 -171 -383 -386 -383c-213 0 -387 166 -387 382c0 211 166 384 386 384c217 0 387 -169 387 -383zM419 80c160 0 284 129 284 289c0 159 -123 290 -285 290c-163 0 -284 -134 -284 -291c0 -160 126 -288 285 -288z" />
    <glyph glyph-name="Ocircumflex" unicode="&#xd4;" horiz-adv-x="838" 
d="M534 806l-115 112l-118 -112l-59 59l136 131h84l132 -131zM805 370c0 -214 -171 -383 -386 -383c-213 0 -387 166 -387 382c0 211 166 384 386 384c217 0 387 -169 387 -383zM419 80c160 0 284 129 284 289c0 159 -123 290 -285 290c-163 0 -284 -134 -284 -291
c0 -160 126 -288 285 -288z" />
    <glyph glyph-name="Odieresis" unicode="&#xd6;" horiz-adv-x="838" 
d="M313 823c-36 0 -65 28 -65 65s29 64 65 64c37 0 65 -27 65 -64s-28 -65 -65 -65zM525 823c-37 0 -66 28 -66 65s29 64 66 64c36 0 64 -27 64 -64s-28 -65 -64 -65zM805 370c0 -214 -171 -383 -386 -383c-213 0 -387 166 -387 382c0 211 166 384 386 384
c217 0 387 -169 387 -383zM419 80c160 0 284 129 284 289c0 159 -123 290 -285 290c-163 0 -284 -134 -284 -291c0 -160 126 -288 285 -288z" />
    <glyph glyph-name="Ograve" unicode="&#xd2;" horiz-adv-x="838" 
d="M462 807l-214 108l46 82l212 -115zM805 370c0 -214 -171 -383 -386 -383c-213 0 -387 166 -387 382c0 211 166 384 386 384c217 0 387 -169 387 -383zM419 80c160 0 284 129 284 289c0 159 -123 290 -285 290c-163 0 -284 -134 -284 -291c0 -160 126 -288 285 -288z" />
    <glyph glyph-name="Oslash" unicode="&#xd8;" horiz-adv-x="838" 
d="M162 -12l36 66c-100 68 -166 182 -166 315c0 211 166 384 386 384c52 0 102 -11 146 -29l35 63l76 -35l-37 -67c102 -68 167 -183 167 -315c0 -214 -171 -383 -386 -383c-53 0 -103 10 -149 28l-34 -61zM134 368c0 -94 43 -176 111 -228l273 500c-31 13 -64 19 -100 19
c-163 0 -284 -134 -284 -291zM419 80c160 0 284 129 284 289c0 94 -44 177 -112 230l-275 -500c32 -12 66 -19 103 -19z" />
    <glyph glyph-name="Otilde" unicode="&#xd5;" horiz-adv-x="838" 
d="M597 866c-30 -33 -66 -53 -104 -53c-55 0 -99 41 -143 41c-25 0 -46 -13 -64 -30l-46 67c29 27 67 48 107 48c57 0 97 -41 141 -41c23 0 47 12 68 33zM805 370c0 -214 -171 -383 -386 -383c-213 0 -387 166 -387 382c0 211 166 384 386 384c217 0 387 -169 387 -383z
M419 80c160 0 284 129 284 289c0 159 -123 290 -285 290c-163 0 -284 -134 -284 -291c0 -160 126 -288 285 -288z" />
    <glyph glyph-name="OE" unicode="&#x152;" horiz-adv-x="1213" 
d="M728 0v111c-69 -77 -170 -124 -284 -124c-213 0 -387 166 -387 382c0 211 166 384 385 384c114 0 215 -47 286 -125v112h432v-97h-330v-209h274v-96h-274v-242h330v-96h-432zM728 369c0 159 -124 290 -285 290c-163 0 -284 -134 -284 -291c0 -160 126 -288 285 -288
c160 0 284 129 284 289z" />
    <glyph glyph-name="P" unicode="P" horiz-adv-x="606" 
d="M85 0v740h225c159 0 264 -82 264 -239c0 -150 -96 -239 -264 -239h-123v-262h-102zM308 359c97 0 164 42 164 141c0 91 -55 143 -164 143h-121v-284h121z" />
    <glyph glyph-name="Thorn" unicode="&#xde;" horiz-adv-x="601" 
d="M187 130v-130h-102v740h102v-132h90c23 0 46 -1 68 -3c148 -14 229 -91 229 -233c0 -155 -96 -242 -264 -242h-123zM308 227c96 0 164 41 164 141c0 91 -56 143 -164 143h-121v-284h121z" />
    <glyph glyph-name="Q" unicode="Q" horiz-adv-x="831" 
d="M822 0c-259 -1 -334 -1 -407 -1c-210 0 -383 157 -383 373c0 211 166 381 387 381c216 0 386 -164 386 -381c0 -112 -46 -210 -146 -276h163v-96zM703 372c0 162 -123 287 -284 287c-164 0 -285 -130 -285 -288c0 -162 126 -278 285 -278c160 0 284 117 284 279z" />
    <glyph glyph-name="R" unicode="R" horiz-adv-x="644" 
d="M502 0l-188 322h-127v-322h-102v740h272c146 0 245 -62 245 -209c0 -118 -63 -186 -176 -203l193 -328h-117zM356 419c84 0 144 23 144 111c0 79 -49 113 -144 113h-169v-224h169z" />
    <glyph glyph-name="S" unicode="S" horiz-adv-x="538" 
d="M84 183c41 -51 95 -103 176 -103c85 0 138 58 138 123c0 163 -341 101 -341 343c0 120 85 207 230 207c68 0 130 -19 192 -70l-57 -78c-41 36 -87 54 -139 54c-80 0 -124 -42 -124 -102c0 -168 341 -96 341 -347c0 -133 -97 -223 -237 -223c-96 0 -186 43 -243 125z" />
    <glyph glyph-name="Scaron" unicode="&#x160;" horiz-adv-x="538" 
d="M405 996l60 -59l-132 -131h-84l-136 131l59 59l118 -112zM84 183c41 -51 95 -103 176 -103c85 0 138 58 138 123c0 163 -341 101 -341 343c0 120 85 207 230 207c68 0 130 -19 192 -70l-57 -78c-41 36 -87 54 -139 54c-80 0 -124 -42 -124 -102c0 -168 341 -96 341 -347
c0 -133 -97 -223 -237 -223c-96 0 -186 43 -243 125z" />
    <glyph glyph-name="T" unicode="T" horiz-adv-x="614" 
d="M256 0v643h-236v97h574v-97h-235v-643h-103z" />
    <glyph glyph-name="U" unicode="U" horiz-adv-x="787" 
d="M604 740h102v-413c0 -225 -129 -340 -313 -340c-183 0 -313 115 -313 340v413h103v-377c0 -182 65 -283 210 -283s211 101 211 283v377z" />
    <glyph glyph-name="Uacute" unicode="&#xda;" horiz-adv-x="787" 
d="M338 807l-44 75l212 115l46 -82zM604 740h102v-413c0 -225 -129 -340 -313 -340c-183 0 -313 115 -313 340v413h103v-377c0 -182 65 -283 210 -283s211 101 211 283v377z" />
    <glyph glyph-name="Ucircumflex" unicode="&#xdb;" horiz-adv-x="787" 
d="M509 806l-115 112l-118 -112l-59 59l136 131h84l132 -131zM604 740h102v-413c0 -225 -129 -340 -313 -340c-183 0 -313 115 -313 340v413h103v-377c0 -182 65 -283 210 -283s211 101 211 283v377z" />
    <glyph glyph-name="Udieresis" unicode="&#xdc;" horiz-adv-x="787" 
d="M287 823c-36 0 -65 28 -65 65s29 64 65 64c37 0 65 -27 65 -64s-28 -65 -65 -65zM499 823c-37 0 -66 28 -66 65s29 64 66 64c36 0 64 -27 64 -64s-28 -65 -64 -65zM604 740h102v-413c0 -225 -129 -340 -313 -340c-183 0 -313 115 -313 340v413h103v-377
c0 -182 65 -283 210 -283s211 101 211 283v377z" />
    <glyph glyph-name="Ugrave" unicode="&#xd9;" horiz-adv-x="787" 
d="M453 806l-214 108l46 82l212 -115zM604 740h102v-413c0 -225 -129 -340 -313 -340c-183 0 -313 115 -313 340v413h103v-377c0 -182 65 -283 210 -283s211 101 211 283v377z" />
    <glyph glyph-name="V" unicode="V" horiz-adv-x="714" 
d="M304 0l-294 740h113l234 -613l235 613h112l-295 -740h-105z" />
    <glyph glyph-name="W" unicode="W" horiz-adv-x="1023" 
d="M679 0l-168 560l-169 -560h-102l-230 740h112l169 -594l173 594h94l172 -594l171 594h112l-231 -740h-103z" />
    <glyph glyph-name="X" unicode="X" horiz-adv-x="658" 
d="M507 0l-179 267l-177 -267h-121l238 358l-253 382h121l192 -291l194 291h121l-254 -382l239 -358h-121z" />
    <glyph glyph-name="Y" unicode="Y" horiz-adv-x="644" 
d="M270 0v333l-263 407h118l196 -306l199 306h116l-264 -406v-334h-102z" />
    <glyph glyph-name="Yacute" unicode="&#xdd;" horiz-adv-x="644" 
d="M269 806l-44 75l212 115l46 -82zM270 0v333l-263 407h118l196 -306l199 306h116l-264 -406v-334h-102z" />
    <glyph glyph-name="Ydieresis" unicode="&#x178;" horiz-adv-x="644" 
d="M216 823c-36 0 -65 28 -65 65s29 64 65 64c37 0 65 -27 65 -64s-28 -65 -65 -65zM428 823c-37 0 -66 28 -66 65s29 64 66 64c36 0 64 -27 64 -64s-28 -65 -64 -65zM270 0v333l-263 407h118l196 -306l199 306h116l-264 -406v-334h-102z" />
    <glyph glyph-name="Z" unicode="Z" horiz-adv-x="658" 
d="M40 0v96l445 547h-434v97h563v-97l-444 -547h445v-96h-575z" />
    <glyph glyph-name="Zcaron" unicode="&#x17d;" horiz-adv-x="658" 
d="M443 996l60 -59l-132 -131h-84l-136 131l59 59l118 -112zM40 0v96l445 547h-434v97h563v-97l-444 -547h445v-96h-575z" />
    <glyph glyph-name="W.ss01" horiz-adv-x="995" 
d="M596 0l-99 258l-99 -258h-104l-284 740h112l224 -613l98 267l-132 346h112l74 -201l74 201h111l-133 -345l98 -268l226 613h111l-285 -740h-104z" />
    <glyph glyph-name="a" unicode="a" 
d="M450 0v56c-40 -47 -95 -69 -159 -69c-141 0 -251 109 -251 248c0 141 112 249 251 249c64 0 118 -23 159 -70v61h96v-475h-96zM448 235c0 86 -67 158 -157 158c-89 0 -156 -70 -156 -158c0 -89 67 -158 156 -158c91 0 157 72 157 158z" />
    <glyph glyph-name="aacute" unicode="&#xe1;" 
d="M233 541l-39 75l217 115l46 -82zM450 0v56c-40 -47 -95 -69 -159 -69c-141 0 -251 109 -251 248c0 141 112 249 251 249c64 0 118 -23 159 -70v61h96v-475h-96zM448 235c0 86 -67 158 -157 158c-89 0 -156 -70 -156 -158c0 -89 67 -158 156 -158c91 0 157 72 157 158z
" />
    <glyph glyph-name="acircumflex" unicode="&#xe2;" 
d="M411 541l-115 112l-118 -112l-59 59l136 131h84l132 -131zM450 0v56c-40 -47 -95 -69 -159 -69c-141 0 -251 109 -251 248c0 141 112 249 251 249c64 0 118 -23 159 -70v61h96v-475h-96zM448 235c0 86 -67 158 -157 158c-89 0 -156 -70 -156 -158c0 -89 67 -158 156 -158
c91 0 157 72 157 158z" />
    <glyph glyph-name="adieresis" unicode="&#xe4;" 
d="M196 564c-36 0 -65 28 -65 65s29 64 65 64c37 0 65 -27 65 -64s-28 -65 -65 -65zM408 564c-37 0 -66 28 -66 65s29 64 66 64c36 0 64 -27 64 -64s-28 -65 -64 -65zM450 0v56c-40 -47 -95 -69 -159 -69c-141 0 -251 109 -251 248c0 141 112 249 251 249
c64 0 118 -23 159 -70v61h96v-475h-96zM448 235c0 86 -67 158 -157 158c-89 0 -156 -70 -156 -158c0 -89 67 -158 156 -158c91 0 157 72 157 158z" />
    <glyph glyph-name="agrave" unicode="&#xe0;" 
d="M159 647l46 84l210 -113l-38 -77zM450 0v56c-40 -47 -95 -69 -159 -69c-141 0 -251 109 -251 248c0 141 112 249 251 249c64 0 118 -23 159 -70v61h96v-475h-96zM448 235c0 86 -67 158 -157 158c-89 0 -156 -70 -156 -158c0 -89 67 -158 156 -158c91 0 157 72 157 158z
" />
    <glyph glyph-name="aring" unicode="&#xe5;" 
d="M402 634c0 -59 -49 -106 -107 -106s-106 48 -106 106c0 57 47 107 106 107s107 -48 107 -107zM340 634c0 25 -20 45 -45 45s-45 -21 -45 -45c0 -25 20 -45 45 -45c24 0 45 19 45 45zM450 0v56c-40 -47 -95 -69 -159 -69c-141 0 -251 109 -251 248c0 141 112 249 251 249
c64 0 118 -23 159 -70v61h96v-475h-96zM448 235c0 86 -67 158 -157 158c-89 0 -156 -70 -156 -158c0 -89 67 -158 156 -158c91 0 157 72 157 158z" />
    <glyph glyph-name="atilde" unicode="&#xe3;" 
d="M485 612c-30 -33 -66 -53 -104 -53c-55 0 -99 41 -143 41c-25 0 -46 -13 -64 -30l-46 67c29 27 67 48 107 48c57 0 97 -41 141 -41c23 0 47 12 68 33zM450 0v56c-40 -47 -95 -69 -159 -69c-141 0 -251 109 -251 248c0 141 112 249 251 249c64 0 118 -23 159 -70v61h96
v-475h-96zM448 235c0 86 -67 158 -157 158c-89 0 -156 -70 -156 -158c0 -89 67 -158 156 -158c91 0 157 72 157 158z" />
    <glyph glyph-name="ae" unicode="&#xe6;" horiz-adv-x="980" 
d="M552 203c13 -73 73 -129 154 -129c52 0 103 23 133 65l68 -52c-44 -62 -119 -100 -200 -100c-63 0 -121 22 -164 60v-47h-93v56c-40 -47 -96 -69 -159 -69c-140 0 -251 109 -251 249s112 248 251 248c64 0 118 -23 159 -70v61h93v-50c41 36 96 59 159 59
c139 0 241 -115 241 -248c0 -13 -1 -23 -2 -33h-389zM845 279c-11 66 -69 117 -144 117c-74 0 -129 -50 -146 -117h290zM448 235c0 86 -66 158 -157 158c-89 0 -156 -70 -156 -159s67 -157 156 -157c91 0 157 72 157 158z" />
    <glyph glyph-name="b" unicode="b" 
d="M80 0v740h96v-326c40 47 95 70 159 70c139 0 251 -108 251 -249c0 -139 -110 -248 -251 -248c-64 0 -119 22 -159 69v-56h-96zM179 235c0 -86 63 -158 155 -158c90 0 157 69 157 158c0 88 -67 158 -156 158s-156 -70 -156 -158z" />
    <glyph glyph-name="c" unicode="c" horiz-adv-x="528" 
d="M503 105c-44 -71 -124 -118 -214 -118c-137 0 -249 111 -249 248c0 136 110 249 249 249c89 0 168 -47 212 -117l-81 -46c-27 43 -76 72 -131 72c-87 0 -154 -74 -154 -159s68 -157 156 -157c57 0 105 30 132 75z" />
    <glyph glyph-name="ccedilla" unicode="&#xe7;" horiz-adv-x="528" 
d="M223 -88l27 78c-119 19 -210 121 -210 245c0 136 110 249 249 249c89 0 168 -47 212 -117l-81 -46c-27 43 -76 72 -131 72c-87 0 -154 -74 -154 -158c0 -86 68 -158 155 -158c58 0 106 30 133 75l80 -47c-43 -68 -118 -114 -203 -118l-12 -31h15c58 0 97 -35 97 -92
c0 -65 -43 -101 -101 -101c-44 0 -96 22 -102 100h47c4 -43 32 -57 57 -57c31 0 52 23 52 56c0 31 -20 50 -58 50h-72z" />
    <glyph glyph-name="d" unicode="d" 
d="M450 0v56c-40 -47 -95 -69 -159 -69c-141 0 -251 109 -251 248c0 141 112 249 251 249c64 0 118 -23 159 -70v326h96v-740h-96zM448 235c0 86 -67 158 -157 158c-89 0 -156 -70 -156 -158c0 -89 67 -158 156 -158c91 0 157 72 157 158z" />
    <glyph glyph-name="eth" unicode="&#xf0;" horiz-adv-x="580" 
d="M155 581l58 54c-43 23 -89 39 -132 50l58 56c48 -10 94 -26 135 -47l71 65l46 -47l-59 -53c130 -92 208 -240 208 -395c0 -217 -151 -277 -251 -277c-137 0 -249 112 -249 248c0 134 110 249 245 249c42 0 83 -11 126 -45c-33 68 -80 119 -140 161l-69 -64zM445 236
c0 87 -70 157 -156 157c-88 0 -154 -73 -154 -158c0 -86 68 -158 155 -158c89 0 155 75 155 159z" />
    <glyph glyph-name="e" unicode="e" horiz-adv-x="563" 
d="M135 203c13 -73 73 -129 154 -129c52 0 103 23 133 65l68 -52c-44 -62 -119 -100 -201 -100c-138 0 -249 108 -249 248c0 133 101 249 243 249c141 0 243 -115 243 -248c0 -13 -1 -23 -2 -33h-389zM428 279c-11 66 -69 117 -144 117c-74 0 -129 -50 -146 -117h290z" />
    <glyph glyph-name="eacute" unicode="&#xe9;" horiz-adv-x="563" 
d="M201 541l-39 75l217 115l46 -82zM135 203c13 -73 73 -129 154 -129c52 0 103 23 133 65l68 -52c-44 -62 -119 -100 -201 -100c-138 0 -249 108 -249 248c0 133 101 249 243 249c141 0 243 -115 243 -248c0 -13 -1 -23 -2 -33h-389zM428 279c-11 66 -69 117 -144 117
c-74 0 -129 -50 -146 -117h290z" />
    <glyph glyph-name="ecircumflex" unicode="&#xea;" horiz-adv-x="563" 
d="M399 541l-115 112l-118 -112l-59 59l136 131h84l132 -131zM135 203c13 -73 73 -129 154 -129c52 0 103 23 133 65l68 -52c-44 -62 -119 -100 -201 -100c-138 0 -249 108 -249 248c0 133 101 249 243 249c141 0 243 -115 243 -248c0 -13 -1 -23 -2 -33h-389zM428 279
c-11 66 -69 117 -144 117c-74 0 -129 -50 -146 -117h290z" />
    <glyph glyph-name="edieresis" unicode="&#xeb;" horiz-adv-x="563" 
d="M180 564c-36 0 -65 28 -65 65s29 64 65 64c37 0 65 -27 65 -64s-28 -65 -65 -65zM392 564c-37 0 -66 28 -66 65s29 64 66 64c36 0 64 -27 64 -64s-28 -65 -64 -65zM135 203c13 -73 73 -129 154 -129c52 0 103 23 133 65l68 -52c-44 -62 -119 -100 -201 -100
c-138 0 -249 108 -249 248c0 133 101 249 243 249c141 0 243 -115 243 -248c0 -13 -1 -23 -2 -33h-389zM428 279c-11 66 -69 117 -144 117c-74 0 -129 -50 -146 -117h290z" />
    <glyph glyph-name="egrave" unicode="&#xe8;" horiz-adv-x="563" 
d="M354 542l-214 108l46 82l212 -115zM135 203c13 -73 73 -129 154 -129c52 0 103 23 133 65l68 -52c-44 -62 -119 -100 -201 -100c-138 0 -249 108 -249 248c0 133 101 249 243 249c141 0 243 -115 243 -248c0 -13 -1 -23 -2 -33h-389zM428 279c-11 66 -69 117 -144 117
c-74 0 -129 -50 -146 -117h290z" />
    <glyph glyph-name="f" unicode="f" horiz-adv-x="332" 
d="M87 0v384h-70v91h70v110c0 91 42 155 146 155c26 0 56 -4 79 -11v-86c-10 3 -37 7 -57 7c-51 0 -71 -24 -71 -97v-78h118v-91h-118v-384h-97z" />
    <glyph glyph-name="g" unicode="g" 
d="M450 56c-40 -47 -95 -69 -159 -69c-141 0 -251 109 -251 248c0 141 112 249 251 249c64 0 118 -23 159 -70v61h96v-436c0 -238 -145 -292 -252 -292c-96 0 -173 44 -218 116l89 38c28 -40 68 -64 128 -64c82 0 157 45 157 185v34zM448 235c0 86 -67 158 -157 158
c-89 0 -156 -70 -156 -158c0 -89 67 -158 156 -158c91 0 157 72 157 158z" />
    <glyph glyph-name="h" unicode="h" horiz-adv-x="580" 
d="M413 0v249c0 95 -37 144 -116 144c-82 0 -121 -53 -121 -151v-242h-96v740h96v-316c32 36 71 60 138 60c113 0 196 -66 196 -215v-269h-97z" />
    <glyph glyph-name="i" unicode="i" horiz-adv-x="257" 
d="M128 564c-36 0 -65 28 -65 65s29 64 65 64c37 0 65 -27 65 -64s-28 -65 -65 -65zM80 0v475h97v-475h-97z" />
    <glyph glyph-name="dotlessi" unicode="&#x131;" horiz-adv-x="257" 
d="M80 0v475h97v-475h-97z" />
    <glyph glyph-name="iacute" unicode="&#xed;" horiz-adv-x="257" 
d="M48 542l-44 75l212 115l46 -82zM80 0v475h97v-475h-97z" />
    <glyph glyph-name="icircumflex" unicode="&#xee;" horiz-adv-x="257" 
d="M245 541l-115 112l-118 -112l-59 59l136 131h84l132 -131zM80 0v475h97v-475h-97z" />
    <glyph glyph-name="idieresis" unicode="&#xef;" horiz-adv-x="257" 
d="M24 564c-36 0 -65 28 -65 65s29 64 65 64c37 0 65 -27 65 -64s-28 -65 -65 -65zM236 564c-37 0 -66 28 -66 65s29 64 66 64c36 0 64 -27 64 -64s-28 -65 -64 -65zM80 0v475h97v-475h-97z" />
    <glyph glyph-name="igrave" unicode="&#xec;" horiz-adv-x="257" 
d="M205 542l-214 108l46 82l212 -115zM80 0v475h97v-475h-97z" />
    <glyph glyph-name="j" unicode="j" horiz-adv-x="257" 
d="M129 564c-37 0 -66 28 -66 65s29 64 66 64c36 0 64 -27 64 -64s-28 -65 -64 -65zM80 -253v728h97v-728h-97z" />
    <glyph glyph-name="k" unicode="k" horiz-adv-x="512" 
d="M378 0l-202 227v-227h-96v740h96v-461l183 196h127l-209 -218l227 -257h-126z" />
    <glyph glyph-name="l" unicode="l" horiz-adv-x="270" 
d="M259 -6c-16 -4 -33 -7 -53 -7c-78 0 -126 47 -126 134v619h96v-589c0 -51 12 -74 59 -74c6 0 15 0 24 1v-84z" />
    <glyph glyph-name="ldot" unicode="&#x140;" horiz-adv-x="348" 
d="M259 -6c-16 -4 -33 -7 -53 -7c-78 0 -126 47 -126 134v619h96v-589c0 -51 12 -74 59 -74c6 0 15 0 24 1v-84zM305 292c-35 0 -62 27 -62 62s27 61 62 61s61 -26 61 -61s-26 -62 -61 -62z" />
    <glyph glyph-name="lslash" unicode="&#x142;" horiz-adv-x="270" 
d="M176 334v-183c0 -51 12 -74 59 -74c6 0 15 0 24 1v-84c-16 -4 -34 -7 -52 -7c-79 0 -127 46 -127 134v143l-66 -48v96l66 48v380h96v-310l74 53v-96z" />
    <glyph glyph-name="m" unicode="m" horiz-adv-x="863" 
d="M697 0v249c0 94 -24 144 -98 144c-75 0 -114 -50 -114 -151v-242h-97v249c0 95 -24 144 -98 144c-75 0 -114 -51 -114 -151v-242h-96v475h96v-51c36 40 73 60 130 60c65 0 123 -26 152 -88c46 70 103 88 158 88c106 0 177 -66 177 -215v-269h-96z" />
    <glyph glyph-name="n" unicode="n" horiz-adv-x="580" 
d="M413 0v249c0 95 -37 144 -116 144c-82 0 -121 -53 -121 -151v-242h-96v475h96v-51c32 36 71 60 138 60c113 0 196 -66 196 -215v-269h-97z" />
    <glyph glyph-name="ntilde" unicode="&#xf1;" horiz-adv-x="580" 
d="M477 612c-30 -33 -66 -53 -104 -53c-55 0 -99 41 -143 41c-25 0 -46 -13 -64 -30l-46 67c29 27 67 48 107 48c57 0 97 -41 141 -41c23 0 47 12 68 33zM413 0v249c0 95 -37 144 -116 144c-82 0 -121 -53 -121 -151v-242h-96v475h96v-51c32 36 71 60 138 60
c113 0 196 -66 196 -215v-269h-97z" />
    <glyph glyph-name="o" unicode="o" horiz-adv-x="580" 
d="M540 235c0 -136 -113 -248 -251 -248c-137 0 -249 111 -249 248c0 136 110 249 249 249c138 0 251 -112 251 -249zM445 236c0 86 -69 157 -155 157c-89 0 -155 -75 -155 -159c0 -85 68 -157 155 -157c88 0 155 74 155 159z" />
    <glyph glyph-name="oacute" unicode="&#xf3;" horiz-adv-x="580" 
d="M219 542l-44 75l212 115l46 -82zM540 235c0 -136 -113 -248 -251 -248c-137 0 -249 111 -249 248c0 136 110 249 249 249c138 0 251 -112 251 -249zM445 236c0 86 -69 157 -155 157c-89 0 -155 -75 -155 -159c0 -85 68 -157 155 -157c88 0 155 74 155 159z" />
    <glyph glyph-name="ocircumflex" unicode="&#xf4;" horiz-adv-x="580" 
d="M405 541l-115 112l-118 -112l-59 59l136 131h84l132 -131zM540 235c0 -136 -113 -248 -251 -248c-137 0 -249 111 -249 248c0 136 110 249 249 249c138 0 251 -112 251 -249zM445 236c0 86 -69 157 -155 157c-89 0 -155 -75 -155 -159c0 -85 68 -157 155 -157
c88 0 155 74 155 159z" />
    <glyph glyph-name="odieresis" unicode="&#xf6;" horiz-adv-x="580" 
d="M183 564c-36 0 -65 28 -65 65s29 64 65 64c37 0 65 -27 65 -64s-28 -65 -65 -65zM395 564c-37 0 -66 28 -66 65s29 64 66 64c36 0 64 -27 64 -64s-28 -65 -64 -65zM540 235c0 -136 -113 -248 -251 -248c-137 0 -249 111 -249 248c0 136 110 249 249 249
c138 0 251 -112 251 -249zM445 236c0 86 -69 157 -155 157c-89 0 -155 -75 -155 -159c0 -85 68 -157 155 -157c88 0 155 74 155 159z" />
    <glyph glyph-name="ograve" unicode="&#xf2;" horiz-adv-x="580" 
d="M364 542l-214 108l46 82l212 -115zM540 235c0 -136 -113 -248 -251 -248c-137 0 -249 111 -249 248c0 136 110 249 249 249c138 0 251 -112 251 -249zM445 236c0 86 -69 157 -155 157c-89 0 -155 -75 -155 -159c0 -85 68 -157 155 -157c88 0 155 74 155 159z" />
    <glyph glyph-name="oslash" unicode="&#xf8;" horiz-adv-x="580" 
d="M127 -57l34 79c-72 43 -121 122 -121 213c0 136 110 249 249 249c22 0 45 -3 66 -10l34 80l63 -26l-35 -80c73 -44 123 -123 123 -213c0 -136 -113 -248 -251 -248c-23 0 -45 3 -67 9l-33 -78zM135 235c0 -52 24 -98 63 -127l121 281c-6 2 -12 3 -27 3
c-87 0 -157 -67 -157 -157zM445 236c0 52 -26 98 -64 126l-122 -281c9 -2 17 -2 26 -2c87 0 160 64 160 157z" />
    <glyph glyph-name="otilde" unicode="&#xf5;" horiz-adv-x="580" 
d="M468 612c-30 -33 -66 -53 -104 -53c-55 0 -99 41 -143 41c-25 0 -46 -13 -64 -30l-46 67c29 27 67 48 107 48c57 0 97 -41 141 -41c23 0 47 12 68 33zM540 235c0 -136 -113 -248 -251 -248c-137 0 -249 111 -249 248c0 136 110 249 249 249c138 0 251 -112 251 -249z
M445 236c0 86 -69 157 -155 157c-89 0 -155 -75 -155 -159c0 -85 68 -157 155 -157c88 0 155 74 155 159z" />
    <glyph glyph-name="oe" unicode="&#x153;" horiz-adv-x="970" 
d="M545 202c16 -74 75 -125 152 -125c54 0 100 25 131 69l76 -49c-48 -70 -121 -110 -207 -110c-87 0 -160 41 -205 104c-45 -63 -119 -104 -203 -104c-137 0 -249 111 -249 248c0 135 110 249 248 249c84 0 159 -42 203 -105c44 64 114 105 199 105
c144 0 242 -117 242 -253c0 -9 0 -19 -1 -29h-386zM445 235c0 86 -69 158 -155 158c-88 0 -155 -74 -155 -159s68 -157 155 -157c88 0 155 74 155 158zM834 280c-14 64 -63 113 -140 113c-74 0 -124 -47 -146 -113h286z" />
    <glyph glyph-name="p" unicode="p" 
d="M80 -253v728h96v-61c40 47 95 70 159 70c139 0 251 -108 251 -249c0 -139 -110 -248 -251 -248c-64 0 -119 22 -159 69v-309h-96zM179 235c0 -86 63 -158 155 -158c90 0 157 69 157 158c0 88 -67 158 -156 158s-156 -70 -156 -158z" />
    <glyph glyph-name="thorn" unicode="&#xfe;" 
d="M80 -253v993h96v-326c40 47 95 70 159 70c140 0 251 -108 251 -248s-111 -249 -251 -249c-63 0 -119 22 -159 69v-309h-96zM179 235c0 -87 64 -158 156 -158c90 0 156 69 156 157c0 89 -67 159 -156 159s-156 -69 -156 -158z" />
    <glyph glyph-name="q" unicode="q" 
d="M450 -253v309c-40 -47 -95 -69 -159 -69c-141 0 -251 109 -251 248c0 141 112 249 251 249c64 0 118 -23 159 -70v61h96v-728h-96zM448 235c0 86 -67 158 -157 158c-89 0 -156 -70 -156 -158c0 -89 67 -158 156 -158c91 0 157 72 157 158z" />
    <glyph glyph-name="r" unicode="r" horiz-adv-x="378" 
d="M80 0v475h96v-57c46 55 93 66 185 66v-92c-157 0 -185 -64 -185 -146v-246h-96z" />
    <glyph glyph-name="s" unicode="s" horiz-adv-x="433" 
d="M85 123c48 -39 99 -49 133 -49c51 0 79 22 79 54c0 94 -247 36 -247 207c0 87 64 149 163 149c40 0 107 -10 161 -54l-51 -71c-42 31 -84 37 -109 37c-48 0 -69 -24 -69 -50c0 -90 246 -41 246 -212c0 -91 -69 -147 -176 -147c-71 0 -133 25 -182 62z" />
    <glyph glyph-name="scaron" unicode="&#x161;" horiz-adv-x="433" 
d="M332 731l60 -59l-132 -131h-84l-136 131l59 59l118 -112zM85 123c48 -39 99 -49 133 -49c51 0 79 22 79 54c0 94 -247 36 -247 207c0 87 64 149 163 149c40 0 107 -10 161 -54l-51 -71c-42 31 -84 37 -109 37c-48 0 -69 -24 -69 -50c0 -90 246 -41 246 -212
c0 -91 -69 -147 -176 -147c-71 0 -133 25 -182 62z" />
    <glyph glyph-name="germandbls" unicode="&#xdf;" horiz-adv-x="590" 
d="M242 0v89h70c100 0 137 60 137 126c0 72 -44 130 -148 130h-59v87h66c55 0 90 42 90 105c0 61 -34 113 -111 113c-93 0 -111 -77 -111 -169v-481h-96v485c0 158 61 255 207 255c130 0 207 -78 207 -190c0 -80 -38 -133 -80 -156c84 -26 131 -97 131 -185
c0 -129 -101 -209 -242 -209h-61z" />
    <glyph glyph-name="t" unicode="t" horiz-adv-x="350" 
d="M305 -2c-10 -4 -40 -11 -75 -11c-117 0 -138 77 -138 159v238h-75v91h75v161h97v-161h129v-91h-129v-227c0 -54 12 -80 63 -80c17 0 43 3 53 7v-86z" />
    <glyph glyph-name="u" unicode="u" horiz-adv-x="575" 
d="M407 475h96v-272c0 -144 -83 -216 -216 -216s-216 72 -216 216v272h97v-265c0 -79 33 -133 119 -133c87 0 120 54 120 133v265z" />
    <glyph glyph-name="uacute" unicode="&#xfa;" horiz-adv-x="575" 
d="M229 542l-39 75l217 115l46 -82zM407 475h96v-272c0 -144 -83 -216 -216 -216s-216 72 -216 216v272h97v-265c0 -79 33 -133 119 -133c87 0 120 54 120 133v265z" />
    <glyph glyph-name="ucircumflex" unicode="&#xfb;" horiz-adv-x="575" 
d="M403 541l-115 112l-118 -112l-59 59l136 131h84l132 -131zM407 475h96v-272c0 -144 -83 -216 -216 -216s-216 72 -216 216v272h97v-265c0 -79 33 -133 119 -133c87 0 120 54 120 133v265z" />
    <glyph glyph-name="udieresis" unicode="&#xfc;" horiz-adv-x="575" 
d="M181 564c-36 0 -65 28 -65 65s29 64 65 64c37 0 65 -27 65 -64s-28 -65 -65 -65zM393 564c-37 0 -66 28 -66 65s29 64 66 64c36 0 64 -27 64 -64s-28 -65 -64 -65zM407 475h96v-272c0 -144 -83 -216 -216 -216s-216 72 -216 216v272h97v-265c0 -79 33 -133 119 -133
c87 0 120 54 120 133v265z" />
    <glyph glyph-name="ugrave" unicode="&#xf9;" horiz-adv-x="575" 
d="M131 648l46 84l210 -113l-38 -77zM407 475h96v-272c0 -144 -83 -216 -216 -216s-216 72 -216 216v272h97v-265c0 -79 33 -133 119 -133c87 0 120 54 120 133v265z" />
    <glyph glyph-name="v" unicode="v" horiz-adv-x="514" 
d="M206 0l-196 475h104l142 -355l144 355h104l-195 -475h-103z" />
    <glyph glyph-name="w" unicode="w" horiz-adv-x="818" 
d="M529 0l-120 342l-119 -342h-102l-178 475h106l123 -350l125 350h89l125 -350l123 350h107l-179 -475h-100z" />
    <glyph glyph-name="x" unicode="x" horiz-adv-x="466" 
d="M349 0l-116 172l-116 -172h-107l169 250l-154 225h108l100 -147l100 147h108l-154 -225l169 -250h-107z" />
    <glyph glyph-name="y" unicode="y" horiz-adv-x="485" 
d="M117 -253l87 244l-194 484h105l136 -357l128 357h96l-263 -728h-95z" />
    <glyph glyph-name="yacute" unicode="&#xfd;" horiz-adv-x="485" 
d="M191 542l-39 75l217 115l46 -82zM117 -253l87 244l-194 484h105l136 -357l128 357h96l-263 -728h-95z" />
    <glyph glyph-name="ydieresis" unicode="&#xff;" horiz-adv-x="485" 
d="M144 564c-36 0 -65 28 -65 65s29 64 65 64c37 0 65 -27 65 -64s-28 -65 -65 -65zM356 564c-37 0 -66 28 -66 65s29 64 66 64c36 0 64 -27 64 -64s-28 -65 -64 -65zM117 -253l87 244l-194 484h105l136 -357l128 357h96l-263 -728h-95z" />
    <glyph glyph-name="z" unicode="z" horiz-adv-x="476" 
d="M50 0v88l253 296h-253v91h376v-88l-252 -297h252v-90h-376z" />
    <glyph glyph-name="zcaron" unicode="&#x17e;" horiz-adv-x="476" 
d="M351 731l60 -59l-132 -131h-84l-136 131l59 59l118 -112zM50 0v88l253 296h-253v91h376v-88l-252 -297h252v-90h-376z" />
    <glyph glyph-name="g.ss01" horiz-adv-x="537" 
d="M267 -258c-117 0 -213 84 -213 189c0 66 38 123 100 155c-66 39 -104 105 -104 180c0 119 96 218 217 218c22 0 43 -3 62 -9h163v-76h-53c30 -37 48 -83 48 -133c0 -75 -40 -142 -107 -181c64 -34 101 -90 101 -154c0 -104 -97 -189 -214 -189zM267 130
c69 0 125 57 125 131s-56 132 -124 132c-70 0 -124 -61 -124 -133c0 -71 53 -130 123 -130zM267 39c-66 0 -118 -41 -118 -103c0 -60 48 -104 118 -104c71 0 118 46 118 104c0 60 -50 103 -118 103z" />
    <glyph glyph-name="g.ss02" horiz-adv-x="504" 
d="M253 29c120 0 192 -66 192 -144s-72 -143 -188 -143s-183 64 -183 143c0 33 11 64 34 89c-25 17 -40 46 -40 80s16 63 42 80c-40 42 -60 100 -60 154c0 111 86 196 202 196c21 0 40 -3 59 -9h151v-76h-48c24 -29 41 -70 41 -120c0 -114 -89 -200 -200 -200
c-34 0 -53 8 -70 8c-26 0 -37 -17 -37 -33c0 -18 15 -33 35 -33c21 5 45 8 70 8zM252 166c67 0 109 53 109 117c0 65 -45 115 -110 115c-64 0 -108 -49 -108 -115c0 -67 44 -117 109 -117zM354 -115c0 35 -33 65 -98 65s-92 -30 -92 -65c0 -34 27 -63 93 -63
c65 0 97 29 97 63z" />
    <glyph glyph-name="ordfeminine" unicode="&#xaa;" horiz-adv-x="451" 
d="M325 407v40c-26 -36 -67 -49 -108 -49c-99 0 -167 75 -167 170c0 94 68 171 167 171c42 0 83 -14 108 -50v43h76v-325h-76zM222 465c58 0 104 37 104 102s-46 104 -106 104c-64 0 -95 -46 -95 -103c0 -60 35 -103 97 -103z" />
    <glyph glyph-name="ordmasculine" unicode="&#xba;" horiz-adv-x="448" 
d="M398 570c0 -94 -76 -171 -174 -171c-95 0 -174 73 -174 169c0 94 75 173 174 173c96 0 174 -75 174 -171zM224 471c58 0 98 44 98 99s-40 99 -98 99s-98 -45 -98 -100s41 -98 98 -98z" />
    <glyph glyph-name="zero" unicode="0" horiz-adv-x="586" 
d="M531 270c0 -148 -67 -283 -238 -283c-165 0 -238 126 -238 283v216c0 141 79 267 238 267c152 0 238 -117 238 -267v-216zM430 472c0 95 -33 187 -137 187c-101 0 -138 -85 -138 -187v-195c0 -102 24 -197 138 -197c109 0 137 86 137 197v195z" />
    <glyph glyph-name="one" unicode="1" horiz-adv-x="375" 
d="M153 0v643h-123v97h225v-740h-102z" />
    <glyph glyph-name="two" unicode="2" horiz-adv-x="560" 
d="M36 0v97l216 215c96 95 140 154 140 225c0 75 -49 129 -125 129c-71 0 -116 -46 -129 -128h-99c15 137 98 215 229 215c130 0 227 -77 227 -209c0 -100 -55 -179 -132 -256l-192 -192h317v-96h-452z" />
    <glyph glyph-name="three" unicode="3" horiz-adv-x="597" 
d="M296 80c64 0 130 37 130 134c0 92 -60 136 -158 136v94h35c67 0 110 48 110 110s-43 108 -108 108c-73 0 -108 -59 -109 -125h-101c3 119 77 216 212 216c128 0 207 -87 207 -197c0 -70 -32 -128 -93 -159c80 -36 111 -101 111 -178c0 -139 -101 -232 -235 -232
c-137 0 -228 97 -233 227h102c5 -84 55 -134 130 -134z" />
    <glyph glyph-name="four" unicode="4" horiz-adv-x="596" 
d="M375 0v126h-340v89l337 525h103v-522h76v-92h-76v-126h-100zM375 580h-1l-227 -362h228v362z" />
    <glyph glyph-name="five" unicode="5" horiz-adv-x="591" 
d="M236 646l-32 -177c34 18 72 25 107 25c141 0 240 -110 240 -250c0 -148 -110 -257 -253 -257c-135 0 -237 98 -253 228h102c10 -64 56 -135 149 -135s154 70 154 164c0 93 -60 160 -152 160c-43 0 -94 -15 -128 -53l-74 54l58 335h347l-5 -94h-260z" />
    <glyph glyph-name="six" unicode="6" horiz-adv-x="582" 
d="M279 740h111l-148 -284c24 10 44 13 65 13c125 0 230 -110 230 -241c0 -133 -108 -241 -245 -241c-135 0 -247 106 -247 238c0 48 15 100 50 166zM293 380c-84 0 -151 -68 -151 -151c0 -82 67 -150 151 -150c83 0 147 68 147 150c0 83 -64 151 -147 151z" />
    <glyph glyph-name="seven" unicode="7" horiz-adv-x="530" 
d="M72 0l296 643h-348v97h455v-97l-293 -643h-110z" />
    <glyph glyph-name="eight" unicode="8" horiz-adv-x="628" 
d="M466 452c65 -47 107 -123 107 -208c0 -142 -115 -257 -259 -257s-259 115 -259 257c0 86 42 162 108 209c-26 31 -40 69 -40 111c0 105 85 189 191 189s191 -84 191 -189c0 -42 -14 -81 -39 -112zM380 492c17 18 26 43 26 70c0 56 -38 99 -92 99s-92 -44 -92 -98
c0 -28 10 -53 27 -71c21 6 42 9 63 9c24 0 46 -4 68 -9zM475 244c0 89 -70 164 -161 164s-160 -75 -160 -164c0 -90 69 -165 160 -165s161 75 161 165z" />
    <glyph glyph-name="nine" unicode="9" horiz-adv-x="582" 
d="M192 0l148 283c-24 -10 -44 -12 -61 -12c-130 0 -234 110 -234 240c0 133 108 242 245 242c135 0 247 -106 247 -239c0 -48 -14 -97 -50 -165l-184 -349h-111zM440 510c0 82 -67 151 -151 151c-83 0 -147 -69 -147 -151s64 -150 147 -150c84 0 151 68 151 150z" />
    <glyph glyph-name="zero.osf" horiz-adv-x="580" 
d="M540 235c0 -136 -113 -248 -251 -248c-137 0 -249 111 -249 248c0 136 110 249 249 249c138 0 251 -112 251 -249zM445 236c0 86 -69 157 -155 157c-89 0 -155 -75 -155 -159c0 -85 68 -157 155 -157c88 0 155 74 155 159z" />
    <glyph glyph-name="one.osf" horiz-adv-x="305" 
d="M123 0v386h-108v89h205v-475h-97z" />
    <glyph glyph-name="two.osf" horiz-adv-x="414" 
d="M40 0v85c196 106 246 190 246 243c0 35 -22 70 -72 70c-43 0 -83 -25 -86 -86h-89c3 101 65 172 176 172c104 0 162 -62 162 -151c0 -84 -52 -177 -225 -252l230 3v-84h-342z" />
    <glyph glyph-name="three.osf" horiz-adv-x="509" 
d="M222 130v89h31c56 0 88 46 88 93c0 49 -36 86 -88 86c-62 0 -92 -51 -92 -101h-95c0 101 70 187 185 187c108 0 185 -75 185 -171c0 -58 -27 -109 -80 -137c64 -29 98 -87 98 -157c0 -120 -97 -197 -209 -197c-121 0 -201 88 -205 196h95c4 -62 44 -109 113 -109
c68 0 110 45 110 106c0 60 -41 115 -107 115h-29z" />
    <glyph glyph-name="four.osf" horiz-adv-x="522" 
d="M311 -168v168h-276v93l276 384h94v-388h77v-89h-77v-168h-94zM309 334h-1l-170 -245h171v245z" />
    <glyph glyph-name="five.osf" horiz-adv-x="517" 
d="M210 386l-25 -124c25 14 55 21 88 21c134 0 209 -109 209 -223c0 -126 -92 -238 -227 -238c-124 0 -224 95 -230 217h88c7 -74 56 -128 135 -128c84 0 139 61 139 142c0 80 -54 140 -133 140c-41 0 -84 -16 -110 -47l-69 42l49 287h293v-89h-207z" />
    <glyph glyph-name="six.osf" horiz-adv-x="529" 
d="M212 415c23 10 41 13 61 13c116 0 216 -102 216 -221c0 -120 -102 -220 -225 -220c-122 0 -224 100 -224 221c0 77 41 157 210 454h104zM394 208c0 73 -58 132 -130 132c-74 0 -129 -62 -129 -132c0 -72 56 -131 130 -131s129 61 129 131z" />
    <glyph glyph-name="seven.osf" horiz-adv-x="418" 
d="M61 -168l238 554h-294v89h393v-88l-237 -555h-100z" />
    <glyph glyph-name="eight.osf" horiz-adv-x="545" 
d="M408 404c58 -42 97 -110 97 -187c0 -127 -105 -230 -233 -230s-232 103 -232 230c0 76 37 145 95 187c-22 28 -34 63 -34 100c0 94 77 169 171 169c95 0 171 -75 171 -169c0 -37 -12 -72 -35 -100zM324 442c17 14 27 37 27 61c0 45 -34 81 -79 81c-44 0 -78 -35 -78 -81
c0 -24 10 -46 26 -61c16 4 33 7 51 7s36 -3 53 -7zM411 218c0 76 -62 141 -139 141c-78 0 -138 -67 -138 -142c0 -76 61 -140 138 -140c79 0 139 66 139 141z" />
    <glyph glyph-name="nine.osf" horiz-adv-x="529" 
d="M175 -191l142 247c-23 -11 -41 -14 -61 -14c-117 0 -216 102 -216 221c0 120 102 221 224 221s225 -100 225 -222c0 -78 -42 -157 -210 -453h-104zM264 394c-74 0 -130 -61 -130 -132c0 -72 58 -131 130 -131c74 0 130 61 130 132s-57 131 -130 131z" />
    <glyph glyph-name="uni00B9" unicode="&#xb9;" horiz-adv-x="248" 
d="M120 296v374h-80v70h158v-444h-78z" />
    <glyph glyph-name="uni00B2" unicode="&#xb2;" horiz-adv-x="387" 
d="M42 296v64l158 148c29 27 62 66 62 107c0 38 -29 63 -70 63c-53 0 -72 -42 -73 -86h-77c0 97 62 155 152 155c88 0 148 -56 148 -133c0 -54 -29 -104 -76 -146l-114 -102h188v-70h-298z" />
    <glyph glyph-name="uni00B3" unicode="&#xb3;" horiz-adv-x="413" 
d="M185 571h15c36 0 74 16 74 63c0 42 -32 56 -59 56c-40 0 -60 -30 -60 -67h-74v8c0 75 63 124 138 124c70 0 133 -44 133 -119c0 -41 -18 -78 -57 -97c47 -20 68 -59 68 -107c0 -85 -67 -142 -152 -142c-84 0 -159 55 -161 154h73c1 -56 43 -85 88 -85c41 0 73 23 73 76
c0 55 -35 74 -99 74v62z" />
    <glyph glyph-name="fraction" unicode="&#x2044;" horiz-adv-x="181" 
d="M-153 0l406 740h82l-406 -740h-82z" />
    <glyph glyph-name="onehalf" unicode="&#xbd;" horiz-adv-x="834" 
d="M120 296v374h-80v70h158v-444h-78zM120 0l406 740h82l-406 -740h-82zM474 0v64l158 148c31 28 62 68 62 107c0 38 -29 63 -70 63c-53 0 -72 -42 -73 -86h-77c0 97 62 155 152 155c88 0 148 -56 148 -134c0 -55 -32 -106 -76 -145l-114 -102h188v-70h-298z" />
    <glyph glyph-name="onequarter" unicode="&#xbc;" horiz-adv-x="775" 
d="M120 296v374h-80v70h158v-444h-78zM120 0l406 740h82l-406 -740h-82zM587 0v69h-207v63l199 302h83v-297h53v-68h-53v-69h-75zM587 329l-124 -192h124v192z" />
    <glyph glyph-name="threequarters" unicode="&#xbe;" horiz-adv-x="891" 
d="M180 571h15c36 0 74 16 74 63c0 42 -32 56 -59 56c-40 0 -60 -30 -60 -67h-74v8c0 75 63 124 138 124c70 0 133 -44 133 -119c0 -41 -18 -78 -57 -97c47 -20 68 -59 68 -107c0 -85 -67 -142 -152 -142c-84 0 -159 55 -161 154h73c1 -56 43 -85 88 -85c41 0 73 23 73 76
c0 55 -35 74 -99 74v62zM237 0l406 740h82l-406 -740h-82zM704 0v69h-208v63l199 302h83v-297h53v-68h-53v-69h-74zM704 329l-124 -192h124v192z" />
    <glyph glyph-name="asterisk" unicode="*" horiz-adv-x="416" 
d="M239 525l2 -106h-72l3 107l-92 -69l-36 60l97 60l-98 52l33 62l98 -57l-3 106h73l-4 -106l92 66l37 -60l-96 -58l103 -56l-36 -62z" />
    <glyph glyph-name="backslash" unicode="\" horiz-adv-x="507" 
d="M409 0l-407 740h96l407 -740h-96z" />
    <glyph glyph-name="periodcentered" unicode="&#xb7;" horiz-adv-x="323" 
d="M162 193c-35 0 -62 27 -62 62s27 61 62 61s61 -26 61 -61s-26 -62 -61 -62z" />
    <glyph glyph-name="bullet" unicode="&#x2022;" horiz-adv-x="480" 
d="M240 209c-92 0 -165 77 -165 168c0 92 74 167 166 167c93 0 164 -78 164 -167c0 -91 -73 -168 -165 -168z" />
    <glyph glyph-name="colon" unicode=":" horiz-adv-x="323" 
d="M162 351c-35 0 -62 27 -62 62s27 62 62 62s61 -27 61 -62s-26 -62 -61 -62zM162 -6c-35 0 -62 27 -62 62s27 61 62 61s61 -26 61 -61s-26 -62 -61 -62z" />
    <glyph glyph-name="comma" unicode="," horiz-adv-x="324" 
d="M113 -72c24 4 54 30 57 67c-3 -1 -9 -1 -11 -1c-32 0 -59 26 -59 61s26 62 63 62c42 0 64 -36 64 -85c0 -69 -42 -152 -114 -154v50z" />
    <glyph glyph-name="ellipsis" unicode="&#x2026;" horiz-adv-x="970" 
d="M162 -6c-35 0 -62 27 -62 62s27 61 62 61s61 -26 61 -61s-26 -62 -61 -62zM485 -6c-35 0 -62 27 -62 62s27 61 62 61s62 -26 62 -61s-27 -62 -62 -62zM809 -6c-35 0 -62 27 -62 62s27 61 62 61s61 -26 61 -61s-26 -62 -61 -62z" />
    <glyph glyph-name="exclam" unicode="!" horiz-adv-x="320" 
d="M136 203l-25 280v257h100v-257l-25 -280h-50zM160 -6c-35 0 -62 27 -62 62s27 61 62 61s62 -26 62 -61s-27 -62 -62 -62z" />
    <glyph glyph-name="exclamdown" unicode="&#xa1;" horiz-adv-x="280" 
d="M202 492c0 -35 -27 -62 -62 -62s-62 27 -62 62s27 62 62 62s62 -27 62 -62zM89 -192v257l25 280h50l25 -280v-257h-100z" />
    <glyph glyph-name="numbersign" unicode="#" horiz-adv-x="612" 
d="M338 66l25 179h-143l-26 -179h-81l25 179h-108v80h120l19 136h-114v81h125l25 175h81l-24 -175h143l25 175h81l-24 -175h95v-80h-107l-19 -137h100v-80h-111l-26 -179h-81zM394 462h-143l-19 -137h143z" />
    <glyph glyph-name="period" unicode="." horiz-adv-x="323" 
d="M162 -6c-35 0 -62 27 -62 62s27 61 62 61s61 -26 61 -61s-26 -62 -61 -62z" />
    <glyph glyph-name="question" unicode="?" horiz-adv-x="538" 
d="M178 196v68c0 109 55 133 121 165c56 27 98 52 98 117c0 73 -53 112 -120 112c-78 0 -116 -54 -116 -129h-96c-1 125 80 224 218 224c126 0 215 -82 215 -208c0 -108 -65 -149 -139 -187c-49 -25 -81 -44 -81 -100v-62h-100zM227 -6c-35 0 -62 27 -62 62s27 61 62 61
s62 -26 62 -61s-27 -62 -62 -62z" />
    <glyph glyph-name="questiondown" unicode="&#xbf;" horiz-adv-x="503" 
d="M383 491c0 -35 -27 -62 -62 -62s-62 27 -62 62s27 62 62 62s62 -27 62 -62zM483 17c0 -125 -79 -224 -218 -224c-126 0 -215 82 -215 210c0 108 64 145 139 185c52 27 81 46 81 100v63h100v-69c0 -109 -55 -132 -121 -164c-51 -25 -98 -51 -98 -118
c0 -72 53 -111 120 -111c78 0 116 54 116 128h96z" />
    <glyph glyph-name="quotedbl" unicode="&#x22;" horiz-adv-x="434" 
d="M90 484l-15 256h107l-16 -256h-76zM267 484l-15 256h107l-16 -256h-76z" />
    <glyph glyph-name="quotesingle" unicode="'" horiz-adv-x="257" 
d="M90 484l-15 256h107l-16 -256h-76z" />
    <glyph glyph-name="semicolon" unicode=";" horiz-adv-x="324" 
d="M162 351c-35 0 -62 27 -62 62s27 62 62 62s61 -27 61 -62s-26 -62 -61 -62zM113 -72c24 4 54 30 57 67c-3 -1 -9 -1 -11 -1c-32 0 -59 26 -59 61s26 62 63 62c42 0 64 -36 64 -85c0 -69 -42 -152 -114 -154v50z" />
    <glyph glyph-name="slash" unicode="/" horiz-adv-x="507" 
d="M2 0l406 740h96l-406 -740h-96z" />
    <glyph glyph-name="underscore" unicode="_" horiz-adv-x="558" 
d="M17 -81v81h523v-81h-523z" />
    <glyph glyph-name="braceleft" unicode="{" horiz-adv-x="352" 
d="M245 -204c-73 0 -106 66 -106 131v175c0 53 -18 116 -119 119v92c99 3 119 68 119 120v175c0 65 33 131 106 131h97v-74h-53c-43 0 -48 -54 -48 -86v-176c0 -55 -29 -117 -117 -135c87 -11 117 -90 117 -150v-161c0 -32 5 -86 48 -86h53v-75h-97z" />
    <glyph glyph-name="braceright" unicode="}" horiz-adv-x="352" 
d="M10 -204v75h53c43 0 48 54 48 86v161c0 60 30 139 117 150c-88 18 -117 80 -117 135v176c0 32 -5 86 -48 86h-53v74h97c73 0 106 -66 106 -131v-175c0 -52 20 -117 119 -120v-92c-101 -3 -119 -66 -119 -119v-175c0 -65 -33 -131 -106 -131h-97z" />
    <glyph glyph-name="bracketleft" unicode="[" horiz-adv-x="321" 
d="M60 -202v942h251v-91h-149v-762h149v-89h-251z" />
    <glyph glyph-name="bracketright" unicode="]" horiz-adv-x="321" 
d="M10 -202v89h149v762h-149v91h251v-942h-251z" />
    <glyph glyph-name="parenleft" unicode="(" horiz-adv-x="371" 
d="M314 -201c-124 73 -264 228 -264 477c0 248 140 404 264 476l47 -77c-93 -56 -209 -193 -209 -398c0 -209 120 -347 209 -402z" />
    <glyph glyph-name="parenright" unicode=")" horiz-adv-x="371" 
d="M10 -125c89 55 209 193 209 402c0 205 -117 342 -209 398l47 77c124 -72 264 -228 264 -476c0 -249 -140 -404 -264 -477z" />
    <glyph glyph-name="emdash" unicode="&#x2014;" horiz-adv-x="1024" 
d="M17 224v92h989v-92h-989z" />
    <glyph glyph-name="endash" unicode="&#x2013;" horiz-adv-x="579" 
d="M17 224v92h544v-92h-544z" />
    <glyph glyph-name="hyphen" unicode="-" horiz-adv-x="417" 
d="M65 224v92h287v-92h-287z" />
    <glyph glyph-name="uni00AD" unicode="&#xad;" horiz-adv-x="600" 
d="M65 224v92h287v-92h-287z" />
    <glyph glyph-name="guillemotleft" unicode="&#xab;" horiz-adv-x="517" 
d="M167 52l-127 201l127 199h106l-124 -199l126 -201h-108zM369 52l-127 201l127 199h106l-124 -199l126 -201h-108z" />
    <glyph glyph-name="guillemotright" unicode="&#xbb;" horiz-adv-x="517" 
d="M40 52l126 201l-124 199h106l127 -199l-127 -201h-108zM242 52l126 201l-124 199h106l127 -199l-127 -201h-108z" />
    <glyph glyph-name="guilsinglleft" unicode="&#x2039;" horiz-adv-x="315" 
d="M167 52l-127 201l127 199h106l-124 -199l126 -201h-108z" />
    <glyph glyph-name="guilsinglright" unicode="&#x203a;" horiz-adv-x="315" 
d="M40 52l126 201l-124 199h106l127 -199l-127 -201h-108z" />
    <glyph glyph-name="quotedblbase" unicode="&#x201e;" horiz-adv-x="399" 
d="M63 -72c24 4 54 30 57 67c-3 -1 -9 -1 -11 -1c-32 0 -59 26 -59 61s26 62 62 62c43 0 65 -36 65 -85c0 -70 -42 -152 -114 -155v51zM238 -72c24 4 54 30 57 67c-3 -1 -9 -1 -11 -1c-32 0 -59 26 -59 61s26 62 62 62c43 0 65 -36 65 -85c0 -70 -42 -152 -114 -155v51z" />
    <glyph glyph-name="quotedblleft" unicode="&#x201c;" horiz-adv-x="399" 
d="M161 690c-24 -4 -54 -30 -57 -67c3 1 9 1 11 1c32 0 59 -26 59 -61s-26 -62 -62 -62c-43 0 -65 36 -65 85c0 70 42 152 114 155v-51zM336 690c-24 -4 -54 -30 -57 -67c3 1 9 1 11 1c32 0 59 -26 59 -61s-26 -62 -62 -62c-43 0 -65 36 -65 85c0 70 42 152 114 155v-51z
" />
    <glyph glyph-name="quotedblright" unicode="&#x201d;" horiz-adv-x="399" 
d="M63 557c24 4 54 30 57 67c-3 -1 -9 -1 -11 -1c-32 0 -59 26 -59 61s26 62 62 62c43 0 65 -36 65 -85c0 -70 -42 -152 -114 -155v51zM238 557c24 4 54 30 57 67c-3 -1 -9 -1 -11 -1c-32 0 -59 26 -59 61s26 62 62 62c43 0 65 -36 65 -85c0 -70 -42 -152 -114 -155v51z" />
    <glyph glyph-name="quoteleft" unicode="&#x2018;" horiz-adv-x="224" 
d="M160 690c-23 -4 -53 -30 -56 -67c3 1 9 1 11 1c32 0 59 -26 59 -61s-27 -62 -63 -62c-43 0 -64 36 -64 85c0 70 42 152 113 155v-51z" />
    <glyph glyph-name="quoteright" unicode="&#x2019;" horiz-adv-x="224" 
d="M63 556c24 4 54 30 57 67c-3 -1 -9 -1 -11 -1c-32 0 -59 26 -59 61s26 62 63 62c42 0 64 -36 64 -86c0 -69 -42 -151 -114 -154v51z" />
    <glyph glyph-name="quotesinglbase" unicode="&#x201a;" horiz-adv-x="224" 
d="M63 -72c24 4 54 30 57 67c-3 -1 -9 -1 -11 -1c-32 0 -59 26 -59 61s26 62 63 62c42 0 64 -36 64 -85c0 -69 -42 -152 -114 -154v50z" />
    <glyph glyph-name="space" unicode=" " horiz-adv-x="270" 
 />
    <glyph glyph-name="uni00A0" unicode="&#xa0;" horiz-adv-x="270" 
 />
    <glyph glyph-name="cent" unicode="&#xa2;" horiz-adv-x="593" 
d="M259 0v128c-111 25 -194 124 -194 242c0 117 82 218 194 243v127h89v-123c75 -10 139 -54 178 -115l-81 -46c-22 34 -57 59 -97 68v-309c43 9 78 35 100 72l80 -47c-39 -62 -104 -106 -180 -116v-124h-89zM160 369c0 -66 40 -124 99 -147v295c-59 -23 -99 -82 -99 -148z
" />
    <glyph glyph-name="currency" unicode="&#xa4;" horiz-adv-x="612" 
d="M445 152c-40 -29 -89 -45 -141 -45s-102 17 -142 46l-81 -80l-53 53l81 81c-30 40 -47 88 -47 139c0 52 17 101 47 140l-82 81l54 54l82 -82c40 29 89 46 141 46c51 0 100 -16 139 -45l82 81l53 -54l-80 -80c30 -40 48 -88 48 -140s-18 -101 -48 -141l81 -80l-53 -54z
M449 346c0 79 -65 145 -145 145s-146 -66 -146 -145s67 -144 146 -144s145 66 145 144z" />
    <glyph glyph-name="dollar" unicode="$" horiz-adv-x="570" 
d="M104 183c36 -45 82 -91 149 -101v260c-87 36 -176 80 -176 204c0 104 64 183 176 202v73h89v-70c54 -6 106 -26 157 -68l-57 -78c-31 26 -64 43 -100 50v-238c88 -35 178 -78 178 -207c0 -114 -71 -195 -178 -217v-73h-89v69c-85 8 -162 49 -213 123zM179 557
c0 -51 30 -80 74 -102v197c-48 -14 -74 -49 -74 -95zM418 203c0 50 -32 78 -76 101v-212c48 20 76 63 76 111z" />
    <glyph glyph-name="Euro" unicode="&#x20ac;" horiz-adv-x="591" 
d="M539 177c-8 -108 -82 -190 -214 -190c-156 0 -230 114 -239 266h-86l29 78h57v70h-76l29 78h47c2 144 78 274 239 274c120 0 207 -72 216 -191h-100c-10 62 -52 97 -116 97c-97 0 -134 -81 -139 -180h268l-29 -78h-239v-70h225l-29 -78h-195c6 -96 37 -173 137 -173
c69 0 113 38 118 97h97z" />
    <glyph glyph-name="florin" unicode="&#x192;" horiz-adv-x="308" 
d="M20 -99c9 0 19 1 25 2c32 5 49 18 49 66v415h-72v91h72v69c0 14 0 28 1 42c6 84 51 132 136 136c19 1 34 -1 49 -3v-86c-11 0 -21 0 -29 -2c-53 -10 -60 -30 -60 -97v-59h92v-91h-92v-425c0 -83 -37 -127 -108 -141c-21 -4 -42 -5 -63 -3v86z" />
    <glyph glyph-name="sterling" unicode="&#xa3;" horiz-adv-x="570" 
d="M27 0v88c110 43 132 122 132 177c0 16 -2 30 -5 45h-101v93h69c-17 40 -33 82 -33 136c0 113 71 214 224 214c141 0 214 -86 227 -210h-102c-14 69 -48 118 -128 118c-87 0 -118 -58 -118 -119c0 -48 19 -93 36 -139h213v-93h-186c3 -13 5 -25 5 -41
c0 -61 -28 -130 -105 -176h377v-93h-505z" />
    <glyph glyph-name="yen" unicode="&#xa5;" horiz-adv-x="649" 
d="M375 180v-180h-103v180h-227v83h227v47l-11 38h-216v83h164l-199 309h118l196 -306l198 306h117l-201 -309h160v-83h-212l-11 -38v-47h223v-83h-223z" />
    <glyph glyph-name="plus" unicode="+" horiz-adv-x="630" 
d="M268 80v219h-218v93h218v219h93v-219h219v-93h-219v-219h-93z" />
    <glyph glyph-name="minus" unicode="&#x2212;" horiz-adv-x="630" 
d="M50 299v93h530v-93h-530z" />
    <glyph glyph-name="multiply" unicode="&#xd7;" horiz-adv-x="578" 
d="M289 279l-168 -168l-66 65l169 169l-168 167l65 66l168 -168l168 168l65 -66l-167 -167l168 -169l-66 -65z" />
    <glyph glyph-name="divide" unicode="&#xf7;" horiz-adv-x="630" 
d="M315 469c-35 0 -62 27 -62 62s27 61 62 61s61 -26 61 -61s-26 -62 -61 -62zM50 299v93h530v-93h-530zM315 99c-35 0 -62 27 -62 62s27 62 62 62s61 -27 61 -62s-26 -62 -61 -62z" />
    <glyph glyph-name="equal" unicode="=" horiz-adv-x="629" 
d="M55 409v93h519v-93h-519zM55 190v93h519v-93h-519z" />
    <glyph glyph-name="greater" unicode="&#x3e;" horiz-adv-x="453" 
d="M110 6l-70 65l280 275l-280 274l70 66l343 -340z" />
    <glyph glyph-name="less" unicode="&#x3c;" horiz-adv-x="453" 
d="M343 6l-343 340l343 340l69 -66l-279 -274l280 -275z" />
    <glyph glyph-name="plusminus" unicode="&#xb1;" horiz-adv-x="640" 
d="M366 360v-204h-93v204h-218v93h218v204h93v-204h219v-93h-219zM55 0v93h530v-93h-530z" />
    <glyph glyph-name="logicalnot" unicode="&#xac;" horiz-adv-x="646" 
d="M493 80v220h-443v93h536v-313h-93z" />
    <glyph glyph-name="asciitilde" unicode="~" horiz-adv-x="598" 
d="M543 397c3 -13 5 -25 5 -39c0 -73 -57 -126 -135 -126c-95 0 -138 80 -226 80c-45 0 -63 -21 -63 -60c0 -6 0 -12 1 -19h-70c-3 14 -5 26 -5 40c0 76 57 125 144 125c110 0 141 -80 220 -80c44 0 60 25 60 61c0 6 0 12 -1 18h70z" />
    <glyph glyph-name="uni00B5" unicode="&#xb5;" horiz-adv-x="583" 
d="M80 -253v728h96v-255c0 -89 21 -143 120 -143c98 0 119 54 119 143v255h97v-282c0 -149 -86 -206 -210 -206c-57 0 -93 12 -126 49v-289h-96z" />
    <glyph glyph-name="percent" unicode="%" horiz-adv-x="911" 
d="M428 570c0 -103 -86 -187 -189 -187s-189 84 -189 187s86 187 189 187s189 -84 189 -187zM210 0l406 740h87l-406 -740h-87zM239 465c58 0 103 47 103 105s-45 105 -103 105s-103 -47 -103 -105s45 -105 103 -105zM861 173c0 -103 -86 -187 -189 -187s-189 84 -189 187
s86 187 189 187s189 -84 189 -187zM672 67c58 0 103 48 103 106s-45 104 -103 104s-103 -46 -103 -104s45 -106 103 -106z" />
    <glyph glyph-name="perthousand" unicode="&#x2030;" horiz-adv-x="1321" 
d="M428 570c0 -103 -86 -187 -189 -187s-189 84 -189 187s86 187 189 187s189 -84 189 -187zM210 0l406 740h87l-406 -740h-87zM239 465c58 0 103 47 103 105s-45 105 -103 105s-103 -47 -103 -105s45 -105 103 -105zM861 173c0 -103 -86 -187 -189 -187s-189 84 -189 187
s86 187 189 187s189 -84 189 -187zM1271 173c0 -103 -86 -187 -189 -187s-189 84 -189 187s86 187 189 187s189 -84 189 -187zM672 67c58 0 103 48 103 106s-45 104 -103 104s-103 -46 -103 -104s45 -106 103 -106zM1082 67c58 0 103 48 103 106s-45 104 -103 104
s-103 -46 -103 -104s45 -106 103 -106z" />
    <glyph glyph-name="uniF8FF" unicode="&#xf8ff;" horiz-adv-x="894" 
d="M239 717h372v-120h-246v-189c130 -46 253 -159 392 -159c26 0 47 4 47 4s-21 -32 -97 -32c-112 0 -242 61 -342 113v-334h-126v386s-24 10 -52 10c-42 0 -78 -18 -78 -57c0 -26 15 -49 37 -57c-35 2 -56 26 -56 63c0 52 45 90 126 90c6 0 14 0 23 -2v284z" />
    <glyph glyph-name="at" unicode="@" horiz-adv-x="965" 
d="M750 -180c-61 -40 -142 -82 -260 -82c-235 0 -440 164 -440 449c0 300 227 453 451 453c208 0 414 -133 414 -388c0 -150 -71 -278 -189 -278c-61 0 -104 34 -116 89c-40 -59 -104 -77 -156 -77c-119 0 -196 91 -196 206c0 116 79 207 199 207c53 0 101 -18 138 -62v55
h89v-265c0 -41 17 -66 48 -66c57 0 93 83 93 177c0 174 -124 314 -320 314c-174 0 -364 -110 -364 -366c0 -233 159 -364 356 -364c78 0 148 21 209 62zM589 191c0 71 -50 128 -125 128c-74 0 -119 -55 -119 -127c0 -73 45 -127 119 -127c76 0 125 56 125 126z" />
    <glyph glyph-name="ampersand" unicode="&#x26;" horiz-adv-x="647" 
d="M300 0c-150 0 -245 89 -245 216c0 78 37 147 120 177c-67 32 -100 96 -100 163c0 107 85 197 209 197c52 0 97 -16 134 -48l-51 -74c-24 20 -54 31 -85 31c-61 0 -107 -44 -107 -107s47 -116 123 -116h113v119h102v-119h84v-96h-84v-247h84v-96h-297zM411 343h-107
c-70 0 -147 -25 -147 -119c0 -88 67 -129 153 -129h101v248z" />
    <glyph glyph-name="paragraph" unicode="&#xb6;" horiz-adv-x="708" 
d="M473 -193v855h-116v-855h-85v465c-152 15 -245 105 -245 230c0 119 83 238 253 238h396v-78h-119v-855h-84zM272 664c-115 0 -165 -76 -165 -155s51 -155 165 -163v318z" />
    <glyph glyph-name="section" unicode="&#xa7;" horiz-adv-x="563" 
d="M171 27c2 -63 46 -109 112 -109c54 0 105 30 105 83c0 135 -343 128 -343 322c0 64 37 106 89 143c-23 29 -35 60 -35 98c0 105 91 163 190 163c106 0 186 -66 193 -178h-99c-4 49 -45 84 -94 84c-47 0 -81 -32 -81 -73c0 -123 310 -127 310 -298
c0 -61 -40 -111 -82 -141c37 -33 51 -73 51 -117c0 -115 -97 -180 -203 -180c-122 0 -208 87 -212 203h99zM370 171c28 17 47 51 47 78c0 74 -140 121 -223 161c-25 -17 -49 -48 -49 -78c0 -76 151 -121 225 -161z" />
    <glyph glyph-name="copyright" unicode="&#xa9;" horiz-adv-x="864" 
d="M814 370c0 -210 -171 -382 -382 -382c-210 0 -382 170 -382 382s172 382 383 382s381 -172 381 -382zM432 56c173 0 310 142 310 314c0 171 -137 314 -311 314c-173 0 -309 -142 -309 -314s136 -314 310 -314zM633 257c-38 -64 -108 -106 -186 -106
c-119 0 -219 98 -219 218c0 118 96 221 218 221c78 0 147 -43 186 -106l-71 -41c-23 39 -66 66 -115 66c-77 0 -134 -66 -134 -140c0 -75 59 -138 135 -138c51 0 92 28 116 67z" />
    <glyph glyph-name="registered" unicode="&#xae;" horiz-adv-x="864" 
d="M814 370c0 -210 -171 -382 -382 -382c-210 0 -382 170 -382 382s172 382 383 382s381 -172 381 -382zM432 56c173 0 310 142 310 314c0 171 -137 314 -311 314c-173 0 -309 -142 -309 -314s136 -314 310 -314zM524 153l-104 177h-65v-176h-73v435h133
c99 0 196 -8 196 -123c0 -76 -42 -115 -108 -130l108 -183h-87zM434 395c55 0 102 8 102 65c0 54 -41 63 -102 63h-79v-128h79z" />
    <glyph glyph-name="trademark" unicode="&#x2122;" horiz-adv-x="780" 
d="M138 388v284h-88v68h248v-68h-87v-284h-73zM636 388v244l-81 -105h-32l-81 104v-243h-73v352h75l95 -126l102 126h69v-352h-74z" />
    <glyph glyph-name="degree" unicode="&#xb0;" horiz-adv-x="380" 
d="M340 570c0 -83 -67 -150 -150 -150s-150 67 -150 150s67 150 150 150s150 -67 150 -150zM277 570c0 49 -38 87 -87 87s-88 -38 -88 -87s39 -88 88 -88s87 39 87 88z" />
    <glyph glyph-name="bar" unicode="|" horiz-adv-x="240" 
d="M70 -140v880h100v-880h-100z" />
    <glyph glyph-name="brokenbar" unicode="&#xa6;" horiz-adv-x="240" 
d="M70 390v350h100v-350h-100zM70 -140v350h100v-350h-100z" />
    <glyph glyph-name="dagger" unicode="&#x2020;" horiz-adv-x="550" 
d="M225 -253v686h-178v89h178v218h100v-218h178v-89h-178v-686h-100z" />
    <glyph glyph-name="daggerdbl" unicode="&#x2021;" horiz-adv-x="560" 
d="M229 -253v265h-177v88h177v362h-177v89h177v189h101v-189h177v-89h-177v-362h177v-88h-177v-265h-101z" />
    <glyph glyph-name="asciicircum" unicode="^" horiz-adv-x="562" 
d="M427 336l-147 316l-145 -316h-100l194 404h104l194 -404h-100z" />
    <glyph glyph-name="ampersand.ss01" horiz-adv-x="650" 
d="M522 343v-104c0 -159 -88 -252 -232 -252c-148 0 -235 100 -235 226c0 81 36 148 119 180c-58 29 -99 87 -99 164c0 119 98 196 208 196c54 0 102 -18 140 -52l-53 -75c-23 23 -53 36 -87 36c-63 0 -107 -45 -107 -107c0 -65 47 -116 123 -116h121v119h102v-119h84v-96
h-84zM420 343h-118c-97 0 -145 -52 -145 -125c0 -75 50 -138 137 -138c68 0 126 39 126 151v112z" />
    <glyph glyph-name="ampersand.ss02" horiz-adv-x="623" 
d="M537 375c23 -38 36 -83 36 -131c0 -142 -115 -257 -259 -257s-259 115 -259 257c0 86 42 162 107 208c-24 31 -38 70 -38 113c0 104 85 188 190 188c67 0 125 -34 159 -85l-78 -52c-18 29 -47 45 -80 45c-55 0 -92 -44 -92 -97c0 -51 35 -95 91 -95c41 0 73 24 89 61
l80 -51c-31 -61 -95 -102 -169 -102c-26 0 -52 5 -74 15c-52 -28 -86 -84 -86 -148c0 -90 69 -165 160 -165s161 75 161 165c0 28 -7 56 -20 80z" />
    <glyph glyph-name="acute" unicode="&#xb4;" horiz-adv-x="358" 
d="M94 542l-44 75l212 121l46 -82z" />
    <glyph glyph-name="breve" unicode="&#x2d8;" horiz-adv-x="420" 
d="M339 663c0 -67 -42 -122 -133 -122c-92 0 -134 56 -134 122h62c0 -33 23 -56 71 -56s72 22 72 56h62z" />
    <glyph glyph-name="caron" unicode="&#x2c7;" horiz-adv-x="440" 
d="M252 541h-66l-136 137l54 53l115 -112l118 112l53 -53z" />
    <glyph glyph-name="cedilla" unicode="&#xb8;" horiz-adv-x="303" 
d="M76 -88l31 88h51l-17 -44h15c58 0 97 -34 97 -94c0 -62 -43 -99 -101 -99c-44 0 -96 22 -102 100h47c4 -43 32 -57 57 -57c31 0 52 23 52 56c0 31 -20 50 -58 50h-72z" />
    <glyph glyph-name="circumflex" unicode="&#x2c6;" horiz-adv-x="440" 
d="M336 541l-115 112l-118 -112l-53 53l138 137h66l136 -137z" />
    <glyph glyph-name="dieresis" unicode="&#xa8;" horiz-adv-x="405" 
d="M112 541c-35 0 -62 27 -62 62s27 61 62 61s61 -26 61 -61s-26 -62 -61 -62zM294 541c-35 0 -62 27 -62 62s27 61 62 61s61 -26 61 -61s-26 -62 -61 -62z" />
    <glyph glyph-name="dotaccent" unicode="&#x2d9;" horiz-adv-x="223" 
d="M112 541c-35 0 -62 27 -62 62s27 61 62 61s61 -26 61 -61s-26 -62 -61 -62z" />
    <glyph glyph-name="grave" unicode="`" horiz-adv-x="358" 
d="M50 654l46 84l211 -120l-44 -76z" />
    <glyph glyph-name="hungarumlaut" unicode="&#x2dd;" horiz-adv-x="554" 
d="M106 534l-56 65l178 154l60 -69zM322 534l-56 65l178 154l60 -69z" />
    <glyph glyph-name="macron" unicode="&#xaf;" horiz-adv-x="448" 
d="M50 558v86h348v-86h-348z" />
    <glyph glyph-name="ogonek" unicode="&#x2db;" horiz-adv-x="248" 
d="M232 -182c-20 -10 -40 -15 -62 -15c-56 0 -106 33 -106 98c0 38 17 75 39 99h59c-15 -21 -29 -51 -29 -76c0 -32 22 -59 59 -59c10 0 27 2 40 9v-56z" />
    <glyph glyph-name="ring" unicode="&#x2da;" horiz-adv-x="313" 
d="M263 602c0 -59 -49 -106 -107 -106s-106 48 -106 106c0 57 47 107 106 107s107 -48 107 -107zM201 602c0 25 -20 45 -45 45s-45 -21 -45 -45c0 -25 20 -45 45 -45c24 0 45 19 45 45z" />
    <glyph glyph-name="tilde" unicode="&#x2dc;" horiz-adv-x="457" 
d="M407 594c-30 -33 -66 -53 -104 -53c-55 0 -99 41 -143 41c-25 0 -46 -13 -64 -30l-46 67c29 27 67 48 107 48c57 0 97 -41 141 -41c23 0 47 12 68 33z" />
    </font>
</defs>
</svg>
