<?xml version="1.0" standalone="no"?>
<!DOCTYPE svg PUBLIC "-//W3C//DTD SVG 1.1//EN" "http://www.w3.org/Graphics/SVG/1.1/DTD/svg11.dtd" >
<svg xmlns="http://www.w3.org/2000/svg" xmlns:xlink="http://www.w3.org/1999/xlink" version="1.1">
<metadata>
Created by FontForge 20190801 at Mon Nov 28 16:04:44 2016
 By www-data
Copyright \(c\) 2013 by Rick Banks. All rights reserved.
</metadata>
<defs>
<font id="F37Ginger-Italic" horiz-adv-x="626" >
  <font-face 
    font-family="F37 Ginger"
    font-weight="400"
    font-style="italic"
    font-stretch="normal"
    units-per-em="1000"
    panose-1="0 0 5 0 0 0 0 0 0 0"
    ascent="800"
    descent="-200"
    x-height="475"
    cap-height="740"
    bbox="-153 -262 1305 996"
    underline-thickness="50"
    underline-position="-100"
    slope="-10"
    stemh="94"
    stemv="99"
    unicode-range="U+0020-FB02"
  />
<missing-glyph horiz-adv-x="729" 
d="M100 0l130 740h529l-130 -740h-529zM644 637h-335l-94 -535h335z" />
    <glyph glyph-name="fi" unicode="fi" horiz-adv-x="574" 
d="M397 0l68 384h-213l-68 -384h-97l68 384h-70l16 91h70l19 110c16 91 70 155 174 155c26 0 55 -4 77 -11l-15 -86c-10 3 -36 7 -56 7c-45 0 -74 -20 -85 -80l-17 -95h309l-84 -475h-96zM545 555c-33 0 -55 24 -55 56c0 41 37 73 78 73c33 0 54 -23 54 -53
c0 -42 -35 -76 -77 -76z" />
    <glyph glyph-name="fl" unicode="fl" horiz-adv-x="587" 
d="M575 -6c-16 -4 -34 -7 -54 -7c-78 0 -117 47 -102 134l46 263h-213l-68 -384h-97l68 384h-70l16 91h70l19 110c16 91 70 155 174 155c26 0 55 -4 77 -11l-15 -86c-10 3 -36 7 -56 7c-45 0 -74 -20 -85 -80l-17 -95h213l47 265h96l-104 -589c-9 -51 -1 -74 46 -74
c6 0 15 0 24 1z" />
    <glyph glyph-name=".notdef" horiz-adv-x="729" 
d="M100 0l130 740h529l-130 -740h-529zM644 637h-335l-94 -535h335z" />
    <glyph glyph-name="A" unicode="A" horiz-adv-x="698" 
d="M590 0l-35 173h-340l-97 -173h-116l421 740h112l161 -740h-106zM464 616l-196 -347h266z" />
    <glyph glyph-name="Aacute" unicode="&#xc1;" horiz-adv-x="698" 
d="M411 807l-31 75l236 114l32 -82zM590 0l-35 173h-340l-97 -173h-116l421 740h112l161 -740h-106zM464 616l-196 -347h266z" />
    <glyph glyph-name="Acircumflex" unicode="&#xc2;" horiz-adv-x="698" 
d="M614 806l-96 112l-137 -112l-52 57l163 133h66l114 -136zM590 0l-35 173h-340l-97 -173h-116l421 740h112l161 -740h-106zM464 616l-196 -347h266z" />
    <glyph glyph-name="Adieresis" unicode="&#xc4;" horiz-adv-x="698" 
d="M390 821c-33 0 -55 24 -55 56c0 41 37 73 78 73c33 0 54 -23 54 -53c0 -42 -35 -76 -77 -76zM595 821c-33 0 -55 24 -55 56c0 41 37 73 78 73c33 0 54 -23 54 -53c0 -42 -35 -76 -77 -76zM590 0l-35 173h-340l-97 -173h-116l421 740h112l161 -740h-106zM464 616
l-196 -347h266z" />
    <glyph glyph-name="Agrave" unicode="&#xc0;" horiz-adv-x="698" 
d="M571 806l-210 111l47 78l203 -119zM590 0l-35 173h-340l-97 -173h-116l421 740h112l161 -740h-106zM464 616l-196 -347h266z" />
    <glyph glyph-name="Aring" unicode="&#xc5;" horiz-adv-x="698" 
d="M610 904c0 -71 -53 -121 -124 -121c-55 0 -92 41 -92 91c0 69 51 122 123 122c56 0 93 -41 93 -92zM547 896c0 21 -15 38 -37 38c-28 0 -54 -24 -54 -52c0 -21 15 -38 38 -38c26 0 53 22 53 52zM590 0l-35 173h-340l-97 -173h-116l421 740h112l161 -740h-106zM464 616
l-196 -347h266z" />
    <glyph glyph-name="Atilde" unicode="&#xc3;" horiz-adv-x="698" 
d="M683 870c-40 -33 -80 -48 -118 -48c-55 0 -92 41 -136 41c-25 0 -48 -13 -69 -30l-38 72c38 27 79 43 119 43c57 0 90 -41 134 -41c23 0 49 12 74 33zM590 0l-35 173h-340l-97 -173h-116l421 740h112l161 -740h-106zM464 616l-196 -347h266z" />
    <glyph glyph-name="AE" unicode="&#xc6;" horiz-adv-x="998" 
d="M513 0l32 180h-287l-144 -180h-117l597 740h481l-17 -97h-330l-36 -209h274l-17 -96h-274l-43 -242h330l-17 -96h-432zM625 637l-290 -361h227z" />
    <glyph glyph-name="B" unicode="B" horiz-adv-x="599" 
d="M85 0l130 740h205c140 0 215 -59 215 -161c0 -101 -54 -160 -137 -189c73 -18 106 -78 106 -148c0 -168 -141 -242 -306 -242h-213zM381 435c75 0 149 27 149 122c0 59 -44 87 -122 87h-107l-37 -209h117zM312 96c107 0 190 37 190 141c0 69 -54 102 -149 102h-106
l-43 -243h108z" />
    <glyph glyph-name="C" unicode="C" horiz-adv-x="715" 
d="M701 97c-82 -68 -180 -110 -286 -110c-188 0 -324 141 -324 327c0 238 218 438 459 438c109 0 199 -43 257 -116l-84 -64c-43 56 -110 87 -187 87c-177 0 -341 -159 -341 -330c0 -137 99 -249 236 -249c78 0 155 34 215 84z" />
    <glyph glyph-name="Ccedilla" unicode="&#xc7;" horiz-adv-x="715" 
d="M320 -99l47 89c-163 20 -276 154 -276 324c0 238 219 438 459 438c109 0 199 -43 257 -116l-84 -64c-43 56 -110 87 -188 87c-176 0 -341 -159 -341 -331c0 -136 100 -248 239 -248c75 0 153 34 213 84l55 -67c-82 -68 -180 -110 -274 -110l-19 -32h6c51 0 92 -32 92 -86
c0 -70 -52 -110 -121 -110c-53 0 -101 25 -94 103h57c-2 -29 11 -47 41 -47c32 0 53 19 53 45c0 25 -16 41 -49 41h-73z" />
    <glyph glyph-name="D" unicode="D" horiz-adv-x="718" 
d="M85 0l130 740h204c202 0 338 -117 338 -309c0 -263 -211 -431 -469 -431h-203zM299 96c191 0 355 99 355 323c0 161 -121 224 -271 224h-83l-96 -547h95z" />
    <glyph glyph-name="Eth" unicode="&#xd0;" horiz-adv-x="718" 
d="M85 0l58 329h-77l17 97h77l55 314h204c202 0 338 -117 338 -309c0 -263 -211 -431 -469 -431h-203zM299 96c191 0 355 99 355 323c0 161 -121 224 -271 224h-83l-38 -217h185l-17 -97h-185l-41 -233h95z" />
    <glyph glyph-name="E" unicode="E" horiz-adv-x="570" 
d="M85 0l130 740h432l-17 -97h-330l-36 -209h274l-17 -96h-274l-43 -242h330l-17 -96h-432z" />
    <glyph glyph-name="Eacute" unicode="&#xc9;" horiz-adv-x="570" 
d="M377 807l-31 75l236 114l32 -82zM85 0l130 740h432l-17 -97h-330l-36 -209h274l-17 -96h-274l-43 -242h330l-17 -96h-432z" />
    <glyph glyph-name="Ecircumflex" unicode="&#xca;" horiz-adv-x="570" 
d="M567 806l-96 112l-137 -112l-52 57l163 133h66l114 -136zM85 0l130 740h432l-17 -97h-330l-36 -209h274l-17 -96h-274l-43 -242h330l-17 -96h-432z" />
    <glyph glyph-name="Edieresis" unicode="&#xcb;" horiz-adv-x="570" 
d="M347 821c-33 0 -55 24 -55 56c0 41 37 73 78 73c33 0 54 -23 54 -53c0 -42 -35 -76 -77 -76zM552 821c-33 0 -55 24 -55 56c0 41 37 73 78 73c33 0 54 -23 54 -53c0 -42 -35 -76 -77 -76zM85 0l130 740h432l-17 -97h-330l-36 -209h274l-17 -96h-274l-43 -242h330l-17 -96
h-432z" />
    <glyph glyph-name="Egrave" unicode="&#xc8;" horiz-adv-x="570" 
d="M520 807l-210 111l47 78l203 -119zM85 0l130 740h432l-17 -97h-330l-36 -209h274l-17 -96h-274l-43 -242h330l-17 -96h-432z" />
    <glyph glyph-name="F" unicode="F" horiz-adv-x="552" 
d="M85 0l130 740h435l-17 -97h-333l-36 -209h276l-17 -96h-276l-60 -338h-102z" />
    <glyph glyph-name="G" unicode="G" horiz-adv-x="823" 
d="M822 348c-36 -211 -197 -361 -405 -361c-194 0 -326 141 -326 325c0 241 220 441 460 441c111 0 205 -45 265 -120l-77 -71c-44 66 -124 97 -203 97c-180 0 -342 -155 -342 -336c0 -137 94 -243 240 -243c127 0 246 75 282 236h-263l17 96h363z" />
    <glyph glyph-name="H" unicode="H" horiz-adv-x="774" 
d="M587 0l60 342h-400l-60 -342h-102l130 740h102l-53 -302h400l53 302h102l-130 -740h-102z" />
    <glyph glyph-name="I" unicode="I" horiz-adv-x="272" 
d="M85 0l130 740h102l-130 -740h-102z" />
    <glyph glyph-name="Iacute" unicode="&#xcd;" horiz-adv-x="272" 
d="M199 807l-31 75l236 114l32 -82zM85 0l130 740h102l-130 -740h-102z" />
    <glyph glyph-name="Icircumflex" unicode="&#xce;" horiz-adv-x="272" 
d="M394 806l-96 112l-137 -112l-52 57l163 133h66l114 -136zM85 0l130 740h102l-130 -740h-102z" />
    <glyph glyph-name="Idieresis" unicode="&#xcf;" horiz-adv-x="272" 
d="M175 821c-33 0 -55 24 -55 56c0 41 37 73 78 73c33 0 54 -23 54 -53c0 -42 -35 -76 -77 -76zM380 821c-33 0 -55 24 -55 56c0 41 37 73 78 73c33 0 54 -23 54 -53c0 -42 -35 -76 -77 -76zM85 0l130 740h102l-130 -740h-102z" />
    <glyph glyph-name="Igrave" unicode="&#xcc;" horiz-adv-x="272" 
d="M352 807l-210 111l47 78l203 -119zM85 0l130 740h102l-130 -740h-102z" />
    <glyph glyph-name="J" unicode="J" horiz-adv-x="267" 
d="M-83 -218l17 94h7c110 0 132 69 151 177l121 687h103l-120 -680c-13 -72 -23 -128 -59 -178c-49 -69 -124 -100 -214 -100h-6z" />
    <glyph glyph-name="K" unicode="K" horiz-adv-x="627" 
d="M492 0l-248 322l-57 -322h-102l130 740h102l-58 -332l333 332h136l-381 -381l277 -359h-132z" />
    <glyph glyph-name="L" unicode="L" horiz-adv-x="558" 
d="M85 0l130 740h102l-113 -644h348l-17 -96h-450z" />
    <glyph glyph-name="Ldot" unicode="&#x13f;" horiz-adv-x="558" 
d="M85 0l130 740h102l-113 -644h348l-17 -96h-450zM468 329c-31 0 -52 23 -52 53c0 39 35 70 74 70c31 0 51 -22 51 -51c0 -40 -34 -72 -73 -72z" />
    <glyph glyph-name="Lslash" unicode="&#x141;" horiz-adv-x="558" 
d="M245 326l-41 -230h348l-17 -96h-450l45 253l-89 -57l17 99l90 57l68 388h102l-56 -315l180 116l-18 -99z" />
    <glyph glyph-name="M" unicode="M" horiz-adv-x="902" 
d="M714 0l108 610l-277 -323h-90l-160 323l-108 -610h-102l130 740h139l165 -343l289 343h139l-130 -740h-103z" />
    <glyph glyph-name="N" unicode="N" horiz-adv-x="825" 
d="M634 0l-340 606l-107 -606h-102l130 740h132l321 -569l100 569h102l-130 -740h-106z" />
    <glyph glyph-name="Ntilde" unicode="&#xd1;" horiz-adv-x="825" 
d="M747 870c-40 -33 -80 -48 -118 -48c-55 0 -92 41 -136 41c-25 0 -48 -13 -69 -30l-38 72c38 27 79 43 119 43c57 0 90 -41 134 -41c23 0 49 12 74 33zM634 0l-340 606l-107 -606h-102l130 740h132l321 -569l100 569h102l-130 -740h-106z" />
    <glyph glyph-name="O" unicode="O" horiz-adv-x="838" 
d="M876 426c0 -240 -221 -439 -459 -439c-190 0 -326 140 -326 326c0 236 215 440 460 440c193 0 325 -142 325 -327zM433 80c178 0 340 152 340 332c0 137 -95 247 -239 247c-181 0 -340 -158 -340 -333c0 -138 98 -246 239 -246z" />
    <glyph glyph-name="Oacute" unicode="&#xd3;" horiz-adv-x="838" 
d="M491 807l-31 75l236 114l32 -82zM876 426c0 -240 -221 -439 -459 -439c-190 0 -326 140 -326 326c0 236 215 440 460 440c193 0 325 -142 325 -327zM433 80c178 0 340 152 340 332c0 137 -95 247 -239 247c-181 0 -340 -158 -340 -333c0 -138 98 -246 239 -246z" />
    <glyph glyph-name="Ocircumflex" unicode="&#xd4;" horiz-adv-x="838" 
d="M676 806l-96 112l-137 -112l-52 57l163 133h66l114 -136zM876 426c0 -240 -221 -439 -459 -439c-190 0 -326 140 -326 326c0 236 215 440 460 440c193 0 325 -142 325 -327zM433 80c178 0 340 152 340 332c0 137 -95 247 -239 247c-181 0 -340 -158 -340 -333
c0 -138 98 -246 239 -246z" />
    <glyph glyph-name="Odieresis" unicode="&#xd6;" horiz-adv-x="838" 
d="M458 821c-33 0 -55 24 -55 56c0 41 37 73 78 73c33 0 54 -23 54 -53c0 -42 -35 -76 -77 -76zM663 821c-33 0 -55 24 -55 56c0 41 37 73 78 73c33 0 54 -23 54 -53c0 -42 -35 -76 -77 -76zM876 426c0 -240 -221 -439 -459 -439c-190 0 -326 140 -326 326
c0 236 215 440 460 440c193 0 325 -142 325 -327zM433 80c178 0 340 152 340 332c0 137 -95 247 -239 247c-181 0 -340 -158 -340 -333c0 -138 98 -246 239 -246z" />
    <glyph glyph-name="Ograve" unicode="&#xd2;" horiz-adv-x="838" 
d="M622 807l-210 111l47 78l203 -119zM876 426c0 -240 -221 -439 -459 -439c-190 0 -326 140 -326 326c0 236 215 440 460 440c193 0 325 -142 325 -327zM433 80c178 0 340 152 340 332c0 137 -95 247 -239 247c-181 0 -340 -158 -340 -333c0 -138 98 -246 239 -246z" />
    <glyph glyph-name="Oslash" unicode="&#xd8;" horiz-adv-x="838" 
d="M160 -12l48 66c-73 56 -117 153 -117 259c0 236 215 440 460 440c52 0 100 -11 141 -29l46 63l70 -35l-49 -67c74 -56 117 -153 117 -259c0 -240 -221 -439 -459 -439c-53 0 -102 10 -144 28l-45 -61zM194 325c0 -74 28 -143 76 -185l361 500c-29 13 -61 19 -97 19
c-181 0 -340 -158 -340 -334zM433 80c178 0 340 152 340 331c0 75 -29 145 -76 188l-364 -500c30 -12 63 -19 100 -19z" />
    <glyph glyph-name="Otilde" unicode="&#xd5;" horiz-adv-x="838" 
d="M749 859c-36 -33 -76 -53 -114 -53c-55 0 -92 41 -136 41c-25 0 -48 -13 -69 -30l-34 67c34 27 75 48 115 48c57 0 90 -41 134 -41c23 0 49 12 74 33zM876 426c0 -240 -221 -439 -459 -439c-190 0 -326 140 -326 326c0 236 215 440 460 440c193 0 325 -142 325 -327z
M433 80c178 0 340 152 340 332c0 137 -95 247 -239 247c-181 0 -340 -158 -340 -333c0 -138 98 -246 239 -246z" />
    <glyph glyph-name="OE" unicode="&#x152;" horiz-adv-x="1213" 
d="M728 0l20 111c-83 -77 -192 -124 -306 -124c-190 0 -326 140 -326 326c0 236 216 440 459 440c114 0 207 -47 264 -125l20 112h432l-18 -97h-330l-36 -209h274l-17 -96h-274l-43 -242h330l-17 -96h-432zM798 412c0 137 -96 247 -239 247c-181 0 -340 -158 -340 -333
c0 -138 98 -246 239 -246c178 0 340 152 340 332z" />
    <glyph glyph-name="P" unicode="P" horiz-adv-x="606" 
d="M85 0l130 740h225c140 0 227 -68 227 -195c0 -172 -117 -283 -311 -283h-123l-46 -262h-102zM371 359c112 0 192 52 192 168c0 74 -47 116 -142 116h-121l-50 -284h121z" />
    <glyph glyph-name="Thorn" unicode="&#xde;" horiz-adv-x="601" 
d="M210 130l-23 -130h-102l130 740h102l-23 -132h90c23 0 46 -1 68 -3c126 -12 193 -76 193 -188c0 -177 -117 -287 -312 -287h-123zM348 227c110 0 192 51 192 168c0 73 -48 116 -142 116h-121l-50 -284h121z" />
    <glyph glyph-name="Q" unicode="Q" horiz-adv-x="831" 
d="M822 0c-259 -1 -334 -1 -407 -1c-187 0 -323 133 -323 318c0 235 214 436 460 436c192 0 325 -138 325 -324c0 -133 -63 -252 -201 -333h163zM774 416c0 138 -96 243 -238 243c-183 0 -341 -154 -341 -330c0 -138 100 -236 241 -236c179 0 338 139 338 323z" />
    <glyph glyph-name="R" unicode="R" horiz-adv-x="644" 
d="M507 0l-131 322h-132l-57 -322h-102l130 740h272c129 0 213 -52 213 -170c0 -136 -78 -222 -216 -242l135 -328h-112zM430 419c97 0 166 29 166 133c0 63 -43 91 -127 91h-169l-39 -224h169z" />
    <glyph glyph-name="S" unicode="S" horiz-adv-x="538" 
d="M117 183c32 -51 76 -103 157 -103c94 0 162 68 162 138c0 136 -286 99 -286 296c0 134 106 239 270 239c68 0 127 -19 180 -70l-71 -78c-35 36 -78 54 -130 54c-90 0 -143 -51 -143 -118c0 -139 285 -95 285 -297c0 -149 -122 -257 -280 -257c-96 0 -178 43 -221 125z
" />
    <glyph glyph-name="Scaron" unicode="&#x160;" horiz-adv-x="538" 
d="M330 996l96 -112l137 112l52 -57l-163 -133h-66l-114 136zM117 183c32 -51 76 -103 157 -103c94 0 162 68 162 138c0 136 -286 99 -286 296c0 134 106 239 270 239c68 0 127 -19 180 -70l-71 -78c-35 36 -78 54 -130 54c-90 0 -143 -51 -143 -118
c0 -139 285 -95 285 -297c0 -149 -122 -257 -280 -257c-96 0 -178 43 -221 125z" />
    <glyph glyph-name="T" unicode="T" horiz-adv-x="614" 
d="M256 0l113 643h-236l17 97h574l-17 -97h-235l-113 -643h-103z" />
    <glyph glyph-name="U" unicode="U" horiz-adv-x="787" 
d="M734 740h103l-73 -413c-40 -225 -189 -340 -373 -340c-183 0 -293 115 -253 340l73 413h102l-66 -377c-32 -182 15 -283 160 -283s229 101 261 283z" />
    <glyph glyph-name="Uacute" unicode="&#xda;" horiz-adv-x="787" 
d="M481 807l-31 75l236 114l32 -82zM734 740h103l-73 -413c-40 -225 -189 -340 -373 -340c-183 0 -293 115 -253 340l73 413h102l-66 -377c-32 -182 15 -283 160 -283s229 101 261 283z" />
    <glyph glyph-name="Ucircumflex" unicode="&#xdb;" horiz-adv-x="787" 
d="M651 806l-96 112l-137 -112l-52 57l163 133h66l114 -136zM734 740h103l-73 -413c-40 -225 -189 -340 -373 -340c-183 0 -293 115 -253 340l73 413h102l-66 -377c-32 -182 15 -283 160 -283s229 101 261 283z" />
    <glyph glyph-name="Udieresis" unicode="&#xdc;" horiz-adv-x="787" 
d="M432 821c-33 0 -55 24 -55 56c0 41 37 73 78 73c33 0 54 -23 54 -53c0 -42 -35 -76 -77 -76zM637 821c-33 0 -55 24 -55 56c0 41 37 73 78 73c33 0 54 -23 54 -53c0 -42 -35 -76 -77 -76zM734 740h103l-73 -413c-40 -225 -189 -340 -373 -340c-183 0 -293 115 -253 340
l73 413h102l-66 -377c-32 -182 15 -283 160 -283s229 101 261 283z" />
    <glyph glyph-name="Ugrave" unicode="&#xd9;" horiz-adv-x="787" 
d="M611 807l-210 111l47 78l203 -119zM734 740h103l-73 -413c-40 -225 -189 -340 -373 -340c-183 0 -293 115 -253 340l73 413h102l-66 -377c-32 -182 15 -283 160 -283s229 101 261 283z" />
    <glyph glyph-name="V" unicode="V" horiz-adv-x="714" 
d="M304 0l-164 740h109l126 -613l343 613h116l-425 -740h-105z" />
    <glyph glyph-name="W" unicode="W" horiz-adv-x="1023" 
d="M679 0l-70 560l-267 -560h-102l-100 740h109l64 -594l278 594h99l67 -594l276 594h110l-361 -740h-103z" />
    <glyph glyph-name="X" unicode="X" horiz-adv-x="658" 
d="M296 740l132 -267l215 267h130l-298 -365l183 -375h-121l-141 291l-235 -291h-131l316 390l-171 350h121z" />
    <glyph glyph-name="Y" unicode="Y" horiz-adv-x="644" 
d="M270 0l58 333l-191 407h112l142 -306l253 306h122l-336 -406l-58 -334h-102z" />
    <glyph glyph-name="Yacute" unicode="&#xdd;" horiz-adv-x="644" 
d="M409 807l-31 75l236 114l32 -82zM270 0l58 333l-191 407h112l142 -306l253 306h122l-336 -406l-58 -334h-102z" />
    <glyph glyph-name="Ydieresis" unicode="&#x178;" horiz-adv-x="644" 
d="M361 821c-33 0 -55 24 -55 56c0 41 37 73 78 73c33 0 54 -23 54 -53c0 -42 -35 -76 -77 -76zM566 821c-33 0 -55 24 -55 56c0 41 37 73 78 73c33 0 54 -23 54 -53c0 -42 -35 -76 -77 -76zM270 0l58 333l-191 407h112l142 -306l253 306h122l-336 -406l-58 -334h-102z" />
    <glyph glyph-name="Z" unicode="Z" horiz-adv-x="658" 
d="M40 0l17 96l532 547h-425l17 97h563l-17 -97l-531 -547h436l-17 -96h-575z" />
    <glyph glyph-name="Zcaron" unicode="&#x17d;" horiz-adv-x="658" 
d="M388 996l96 -112l137 112l52 -57l-163 -133h-66l-114 136zM40 0l17 96l532 547h-425l17 97h563l-17 -97l-531 -547h436l-17 -96h-575z" />
    <glyph glyph-name="W.ss01" horiz-adv-x="995" 
d="M596 0l-54 258l-144 -258h-104l-154 740h112l116 -613l145 267l-71 346h112l39 -201l109 201h111l-194 -345l51 -268l334 613h111l-415 -740h-104z" />
    <glyph glyph-name="a" unicode="a" 
d="M450 0l9 56c-48 -47 -107 -69 -171 -69c-125 0 -211 92 -211 211c0 159 144 286 299 286c64 0 114 -23 147 -70l10 61h96l-83 -475h-96zM492 258c0 75 -52 135 -132 135c-99 0 -187 -83 -187 -182c0 -76 52 -134 131 -134c102 0 188 85 188 181z" />
    <glyph glyph-name="aacute" unicode="&#xe1;" 
d="M334 542l-31 75l236 114l32 -82zM450 0l9 56c-48 -47 -107 -69 -171 -69c-125 0 -211 92 -211 211c0 159 144 286 299 286c64 0 114 -23 147 -70l10 61h96l-83 -475h-96zM492 258c0 75 -52 135 -132 135c-99 0 -187 -83 -187 -182c0 -76 52 -134 131 -134
c102 0 188 85 188 181z" />
    <glyph glyph-name="acircumflex" unicode="&#xe2;" 
d="M507 541l-96 112l-137 -112l-52 57l163 133h66l114 -136zM450 0l9 56c-48 -47 -107 -69 -171 -69c-125 0 -211 92 -211 211c0 159 144 286 299 286c64 0 114 -23 147 -70l10 61h96l-83 -475h-96zM492 258c0 75 -52 135 -132 135c-99 0 -187 -83 -187 -182
c0 -76 52 -134 131 -134c102 0 188 85 188 181z" />
    <glyph glyph-name="adieresis" unicode="&#xe4;" 
d="M288 555c-33 0 -55 24 -55 56c0 41 37 73 78 73c33 0 54 -23 54 -53c0 -42 -35 -76 -77 -76zM493 555c-33 0 -55 24 -55 56c0 41 37 73 78 73c33 0 54 -23 54 -53c0 -42 -35 -76 -77 -76zM450 0l9 56c-48 -47 -107 -69 -171 -69c-125 0 -211 92 -211 211
c0 159 144 286 299 286c64 0 114 -23 147 -70l10 61h96l-83 -475h-96zM492 258c0 75 -52 135 -132 135c-99 0 -187 -83 -187 -182c0 -76 52 -134 131 -134c102 0 188 85 188 181z" />
    <glyph glyph-name="agrave" unicode="&#xe0;" 
d="M484 541l-210 111l47 78l203 -119zM450 0l9 56c-48 -47 -107 -69 -171 -69c-125 0 -211 92 -211 211c0 159 144 286 299 286c64 0 114 -23 147 -70l10 61h96l-83 -475h-96zM492 258c0 75 -52 135 -132 135c-99 0 -187 -83 -187 -182c0 -76 52 -134 131 -134
c102 0 188 85 188 181z" />
    <glyph glyph-name="aring" unicode="&#xe5;" 
d="M510 639c0 -71 -53 -121 -124 -121c-55 0 -92 41 -92 91c0 69 51 122 123 122c56 0 93 -41 93 -92zM447 631c0 21 -15 38 -37 38c-28 0 -54 -24 -54 -52c0 -21 15 -38 38 -38c26 0 53 22 53 52zM450 0l9 56c-48 -47 -107 -69 -171 -69c-125 0 -211 92 -211 211
c0 159 144 286 299 286c64 0 114 -23 147 -70l10 61h96l-83 -475h-96zM492 258c0 75 -52 135 -132 135c-99 0 -187 -83 -187 -182c0 -76 52 -134 131 -134c102 0 188 85 188 181z" />
    <glyph glyph-name="atilde" unicode="&#xe3;" 
d="M586 604c-40 -33 -80 -48 -118 -48c-55 0 -92 41 -136 41c-25 0 -48 -13 -69 -30l-38 72c38 27 79 43 119 43c57 0 90 -41 134 -41c23 0 49 12 74 33zM450 0l9 56c-48 -47 -107 -69 -171 -69c-125 0 -211 92 -211 211c0 159 144 286 299 286c64 0 114 -23 147 -70l10 61
h96l-83 -475h-96zM492 258c0 75 -52 135 -132 135c-99 0 -187 -83 -187 -182c0 -76 52 -134 131 -134c102 0 188 85 188 181z" />
    <glyph glyph-name="ae" unicode="&#xe6;" horiz-adv-x="980" 
d="M588 203c0 -73 50 -129 131 -129c52 0 108 23 145 65l59 -52c-55 -62 -137 -100 -218 -100c-63 0 -117 22 -153 60l-9 -47h-93l10 56c-48 -47 -108 -69 -171 -69c-125 0 -211 92 -211 212c0 158 144 285 299 285c64 0 114 -23 146 -70l11 61h93l-9 -50
c48 36 107 59 170 59c123 0 201 -96 201 -211c0 -28 -5 -46 -12 -70h-389zM895 279c0 66 -49 117 -124 117c-74 0 -138 -50 -166 -117h290zM492 259c0 74 -50 134 -131 134c-99 0 -187 -83 -187 -183c0 -76 52 -133 131 -133c101 0 187 85 187 182z" />
    <glyph glyph-name="b" unicode="b" 
d="M80 0l130 740h96l-57 -326c48 47 107 70 171 70c124 0 211 -91 211 -212c0 -156 -141 -285 -298 -285c-64 0 -115 22 -147 69l-10 -56h-96zM218 211c0 -74 48 -134 130 -134c100 0 187 82 187 182c0 75 -52 134 -131 134c-99 0 -186 -83 -186 -182z" />
    <glyph glyph-name="c" unicode="c" horiz-adv-x="528" 
d="M522 105c-57 -71 -145 -118 -235 -118c-122 0 -209 94 -209 213c0 151 143 284 297 284c89 0 159 -47 191 -117l-89 -46c-19 43 -63 72 -118 72c-97 0 -185 -87 -185 -182c0 -73 53 -134 131 -134c57 0 110 30 145 75z" />
    <glyph glyph-name="ccedilla" unicode="&#xe7;" horiz-adv-x="528" 
d="M309 -12l-19 -33l6 -1c51 0 91 -33 91 -87c-1 -70 -54 -109 -123 -108c-53 0 -100 26 -92 104l57 -1c-3 -29 10 -47 40 -47c32 -1 53 18 54 44c0 25 -16 41 -49 42l-73 1l48 88c-102 17 -171 103 -171 210c0 151 143 284 297 284c89 0 159 -47 191 -117l-89 -46
c-19 43 -63 72 -118 72c-97 0 -185 -87 -185 -181c0 -74 53 -135 130 -135c58 0 111 30 146 75l72 -47c-55 -68 -138 -112 -213 -117z" />
    <glyph glyph-name="d" unicode="d" 
d="M450 0l9 56c-48 -47 -107 -69 -171 -69c-125 0 -211 92 -211 211c0 159 144 286 299 286c64 0 114 -23 147 -70l57 326h96l-130 -740h-96zM492 258c0 75 -52 135 -132 135c-99 0 -187 -83 -187 -182c0 -76 52 -134 131 -134c102 0 188 85 188 181z" />
    <glyph glyph-name="eth" unicode="&#xf0;" horiz-adv-x="580" 
d="M258 581l67 54c-39 23 -82 39 -123 50l68 56c46 -10 89 -26 127 -47l82 65l38 -47l-68 -53c93 -76 145 -202 145 -329c0 -269 -193 -343 -307 -343c-122 0 -209 95 -209 213c0 150 143 284 293 284c42 0 81 -11 118 -45c-21 68 -59 119 -112 161l-80 -64zM489 259
c0 75 -54 134 -130 134c-98 0 -185 -86 -185 -181c0 -74 53 -135 130 -135c99 0 185 88 185 182z" />
    <glyph glyph-name="e" unicode="e" horiz-adv-x="563" 
d="M170 203c0 -73 51 -129 132 -129c52 0 107 23 144 65l59 -52c-55 -62 -137 -100 -219 -100c-123 0 -209 91 -209 211c0 149 133 286 291 286c125 0 203 -96 203 -211c0 -28 -5 -46 -12 -70h-389zM477 279c0 66 -49 117 -124 117c-74 0 -137 -50 -166 -117h290z" />
    <glyph glyph-name="eacute" unicode="&#xe9;" horiz-adv-x="563" 
d="M302 542l-31 75l236 114l32 -82zM170 203c0 -73 51 -129 132 -129c52 0 107 23 144 65l59 -52c-55 -62 -137 -100 -219 -100c-123 0 -209 91 -209 211c0 149 133 286 291 286c125 0 203 -96 203 -211c0 -28 -5 -46 -12 -70h-389zM477 279c0 66 -49 117 -124 117
c-74 0 -137 -50 -166 -117h290z" />
    <glyph glyph-name="ecircumflex" unicode="&#xea;" horiz-adv-x="563" 
d="M495 541l-96 112l-137 -112l-52 57l163 133h66l114 -136zM170 203c0 -73 51 -129 132 -129c52 0 107 23 144 65l59 -52c-55 -62 -137 -100 -219 -100c-123 0 -209 91 -209 211c0 149 133 286 291 286c125 0 203 -96 203 -211c0 -28 -5 -46 -12 -70h-389zM477 279
c0 66 -49 117 -124 117c-74 0 -137 -50 -166 -117h290z" />
    <glyph glyph-name="edieresis" unicode="&#xeb;" horiz-adv-x="563" 
d="M275 555c-33 0 -55 24 -55 56c0 41 37 73 78 73c33 0 54 -23 54 -53c0 -42 -35 -76 -77 -76zM480 555c-33 0 -55 24 -55 56c0 41 37 73 78 73c33 0 54 -23 54 -53c0 -42 -35 -76 -77 -76zM170 203c0 -73 51 -129 132 -129c52 0 107 23 144 65l59 -52
c-55 -62 -137 -100 -219 -100c-123 0 -209 91 -209 211c0 149 133 286 291 286c125 0 203 -96 203 -211c0 -28 -5 -46 -12 -70h-389zM477 279c0 66 -49 117 -124 117c-74 0 -137 -50 -166 -117h290z" />
    <glyph glyph-name="egrave" unicode="&#xe8;" horiz-adv-x="563" 
d="M461 541l-210 111l47 78l203 -119zM170 203c0 -73 51 -129 132 -129c52 0 107 23 144 65l59 -52c-55 -62 -137 -100 -219 -100c-123 0 -209 91 -209 211c0 149 133 286 291 286c125 0 203 -96 203 -211c0 -28 -5 -46 -12 -70h-389zM477 279c0 66 -49 117 -124 117
c-74 0 -137 -50 -166 -117h290z" />
    <glyph glyph-name="f" unicode="f" horiz-adv-x="332" 
d="M87 0l68 384h-70l16 91h70l19 110c16 91 70 155 174 155c26 0 55 -4 77 -11l-15 -86c-10 3 -36 7 -56 7c-51 0 -75 -24 -88 -97l-14 -78h118l-16 -91h-118l-68 -384h-97z" />
    <glyph glyph-name="g" unicode="g" 
d="M460 56c-48 -47 -107 -69 -171 -69c-126 0 -211 92 -211 211c0 159 144 286 298 286c64 0 114 -23 147 -70l11 61h96l-77 -436c-42 -238 -196 -292 -303 -292c-96 0 -166 44 -198 116l96 38c21 -40 56 -64 116 -64c82 0 165 45 190 185zM492 258c0 75 -52 135 -132 135
c-99 0 -186 -83 -186 -182c0 -76 52 -134 131 -134c101 0 187 85 187 181z" />
    <glyph glyph-name="h" unicode="h" horiz-adv-x="580" 
d="M413 0l44 249c17 95 -12 144 -91 144c-82 0 -130 -53 -147 -151l-43 -242h-96l130 740h96l-55 -316c38 36 81 60 148 60c113 0 184 -66 158 -215l-47 -269h-97z" />
    <glyph glyph-name="i" unicode="i" horiz-adv-x="257" 
d="M228 555c-33 0 -55 24 -55 56c0 41 37 73 78 73c33 0 54 -23 54 -53c0 -42 -35 -76 -77 -76zM80 0l84 475h97l-84 -475h-97z" />
    <glyph glyph-name="dotlessi" unicode="&#x131;" horiz-adv-x="257" 
d="M80 0l84 475h97l-84 -475h-97z" />
    <glyph glyph-name="iacute" unicode="&#xed;" horiz-adv-x="257" 
d="M144 542l-31 75l236 114l32 -82zM80 0l84 475h97l-84 -475h-97z" />
    <glyph glyph-name="icircumflex" unicode="&#xee;" horiz-adv-x="257" 
d="M341 541l-96 112l-137 -112l-52 57l163 133h66l114 -136zM80 0l84 475h97l-84 -475h-97z" />
    <glyph glyph-name="idieresis" unicode="&#xef;" horiz-adv-x="257" 
d="M121 555c-33 0 -55 24 -55 56c0 41 37 73 78 73c33 0 54 -23 54 -53c0 -42 -35 -76 -77 -76zM326 555c-33 0 -55 24 -55 56c0 41 37 73 78 73c33 0 54 -23 54 -53c0 -42 -35 -76 -77 -76zM80 0l84 475h97l-84 -475h-97z" />
    <glyph glyph-name="igrave" unicode="&#xec;" horiz-adv-x="257" 
d="M317 541l-210 111l47 78l203 -119zM80 0l84 475h97l-84 -475h-97z" />
    <glyph glyph-name="j" unicode="j" horiz-adv-x="257" 
d="M228 555c-33 0 -55 24 -55 56c0 41 37 73 78 73c33 0 54 -23 54 -53c0 -42 -35 -76 -77 -76zM35 -253l128 728h97l-128 -728h-97z" />
    <glyph glyph-name="k" unicode="k" horiz-adv-x="512" 
d="M378 0l-162 227l-40 -227h-96l130 740h96l-80 -455l208 190h138l-249 -230l174 -245h-119z" />
    <glyph glyph-name="l" unicode="l" horiz-adv-x="270" 
d="M258 -6c-17 -4 -34 -7 -54 -7c-78 0 -118 47 -103 134l109 619h96l-103 -589c-9 -51 -1 -74 46 -74c6 0 15 0 24 1z" />
    <glyph glyph-name="ldot" unicode="&#x140;" horiz-adv-x="333" 
d="M258 -6c-17 -4 -34 -7 -54 -7c-78 0 -118 47 -103 134l109 619h96l-103 -589c-9 -51 -1 -74 46 -74c6 0 15 0 24 1zM347 294c-31 0 -52 23 -52 53c0 39 35 70 74 70c31 0 51 -22 51 -51c0 -40 -34 -72 -73 -72z" />
    <glyph glyph-name="lslash" unicode="&#x142;" horiz-adv-x="270" 
d="M235 334l-32 -183c-9 -51 -2 -74 45 -74c6 0 15 0 25 1l-15 -84c-17 -4 -35 -7 -53 -7c-79 0 -119 46 -104 134l25 143l-74 -48l17 96l74 48l67 380h96l-54 -310l83 53l-17 -96z" />
    <glyph glyph-name="m" unicode="m" horiz-adv-x="863" 
d="M697 0l44 249c17 94 1 144 -73 144c-75 0 -122 -50 -140 -151l-43 -242h-97l44 249c17 95 1 144 -73 144c-75 0 -122 -51 -140 -151l-43 -242h-96l84 475h96l-9 -51c43 40 83 60 140 60c65 0 119 -26 137 -88c58 70 118 88 173 88c106 0 165 -66 139 -215l-47 -269h-96z
" />
    <glyph glyph-name="n" unicode="n" horiz-adv-x="580" 
d="M413 0l44 249c17 95 -12 144 -91 144c-82 0 -130 -53 -147 -151l-43 -242h-96l84 475h96l-9 -51c38 36 81 60 148 60c113 0 184 -66 158 -215l-47 -269h-97z" />
    <glyph glyph-name="ntilde" unicode="&#xf1;" horiz-adv-x="580" 
d="M574 604c-40 -33 -80 -48 -118 -48c-55 0 -92 41 -136 41c-25 0 -48 -13 -69 -30l-38 72c38 27 79 43 119 43c57 0 90 -41 134 -41c23 0 49 12 74 33zM413 0l44 249c17 95 -12 144 -91 144c-82 0 -130 -53 -147 -151l-43 -242h-96l84 475h96l-9 -51c38 36 81 60 148 60
c113 0 184 -66 158 -215l-47 -269h-97z" />
    <glyph glyph-name="o" unicode="o" horiz-adv-x="580" 
d="M586 270c0 -152 -147 -283 -299 -283c-122 0 -209 94 -209 213c0 151 143 284 297 284c123 0 211 -95 211 -214zM489 259c0 74 -53 134 -129 134c-99 0 -186 -88 -186 -182c0 -73 53 -134 130 -134c98 0 185 87 185 182z" />
    <glyph glyph-name="oacute" unicode="&#xf3;" horiz-adv-x="580" 
d="M315 542l-31 75l236 114l32 -82zM586 270c0 -152 -147 -283 -299 -283c-122 0 -209 94 -209 213c0 151 143 284 297 284c123 0 211 -95 211 -214zM489 259c0 74 -53 134 -129 134c-99 0 -186 -88 -186 -182c0 -73 53 -134 130 -134c98 0 185 87 185 182z" />
    <glyph glyph-name="ocircumflex" unicode="&#xf4;" horiz-adv-x="580" 
d="M501 541l-96 112l-137 -112l-52 57l163 133h66l114 -136zM586 270c0 -152 -147 -283 -299 -283c-122 0 -209 94 -209 213c0 151 143 284 297 284c123 0 211 -95 211 -214zM489 259c0 74 -53 134 -129 134c-99 0 -186 -88 -186 -182c0 -73 53 -134 130 -134
c98 0 185 87 185 182z" />
    <glyph glyph-name="odieresis" unicode="&#xf6;" horiz-adv-x="580" 
d="M282 555c-33 0 -55 24 -55 56c0 41 37 73 78 73c33 0 54 -23 54 -53c0 -42 -35 -76 -77 -76zM487 555c-33 0 -55 24 -55 56c0 41 37 73 78 73c33 0 54 -23 54 -53c0 -42 -35 -76 -77 -76zM586 270c0 -152 -147 -283 -299 -283c-122 0 -209 94 -209 213
c0 151 143 284 297 284c123 0 211 -95 211 -214zM489 259c0 74 -53 134 -129 134c-99 0 -186 -88 -186 -182c0 -73 53 -134 130 -134c98 0 185 87 185 182z" />
    <glyph glyph-name="ograve" unicode="&#xf2;" horiz-adv-x="580" 
d="M457 541l-210 111l47 78l203 -119zM586 270c0 -152 -147 -283 -299 -283c-122 0 -209 94 -209 213c0 151 143 284 297 284c123 0 211 -95 211 -214zM489 259c0 74 -53 134 -129 134c-99 0 -186 -88 -186 -182c0 -73 53 -134 130 -134c98 0 185 87 185 182z" />
    <glyph glyph-name="oslash" unicode="&#xf8;" horiz-adv-x="580" 
d="M117 -57l48 79c-54 36 -87 103 -87 177c0 152 143 285 297 285c22 0 44 -3 64 -10l48 80l59 -26l-50 -80c55 -37 90 -105 90 -179c0 -151 -147 -282 -299 -282c-23 0 -44 3 -65 9l-47 -78zM174 212c0 -42 16 -80 43 -104l171 281c-6 2 -11 3 -26 3
c-97 0 -188 -79 -188 -180zM489 258c0 42 -17 81 -44 104l-171 -281c8 -2 16 -2 25 -2c97 0 190 76 190 179z" />
    <glyph glyph-name="otilde" unicode="&#xf5;" horiz-adv-x="580" 
d="M572 604c-40 -33 -80 -48 -118 -48c-55 0 -92 41 -136 41c-25 0 -48 -13 -69 -30l-38 72c38 27 79 43 119 43c57 0 90 -41 134 -41c23 0 49 12 74 33zM586 270c0 -152 -147 -283 -299 -283c-122 0 -209 94 -209 213c0 151 143 284 297 284c123 0 211 -95 211 -214z
M489 259c0 74 -53 134 -129 134c-99 0 -186 -88 -186 -182c0 -73 53 -134 130 -134c98 0 185 87 185 182z" />
    <glyph glyph-name="oe" unicode="&#x153;" horiz-adv-x="970" 
d="M581 202c3 -74 53 -125 130 -125c54 0 104 25 143 69l68 -49c-61 -70 -141 -110 -227 -110c-87 0 -153 41 -187 104c-56 -63 -137 -104 -221 -104c-122 0 -209 94 -209 213c0 151 143 284 296 284c84 0 151 -42 184 -105c56 64 133 105 218 105c126 0 201 -97 201 -213
c0 -49 -7 -59 -10 -69h-386zM489 258c0 74 -52 135 -129 135c-98 0 -186 -87 -186 -182c0 -73 53 -134 130 -134c98 0 185 87 185 181zM884 280c-3 64 -43 113 -120 113c-74 0 -133 -47 -166 -113h286z" />
    <glyph glyph-name="p" unicode="p" 
d="M35 -253l128 728h96l-10 -61c48 47 107 70 171 70c124 0 211 -91 211 -212c0 -156 -142 -285 -299 -285c-64 0 -115 22 -147 69l-54 -309h-96zM217 211c0 -74 49 -134 130 -134c101 0 188 82 188 182c0 75 -52 134 -131 134c-99 0 -187 -83 -187 -182z" />
    <glyph glyph-name="thorn" unicode="&#xfe;" 
d="M35 -253l175 993h96l-57 -326c48 47 107 70 171 70c125 0 211 -91 211 -211c0 -158 -143 -286 -299 -286c-63 0 -115 22 -147 69l-54 -309h-96zM217 210c0 -74 50 -133 131 -133c101 0 187 82 187 181c0 77 -52 135 -131 135c-100 0 -187 -82 -187 -183z" />
    <glyph glyph-name="q" unicode="q" 
d="M405 -253l54 309c-48 -47 -107 -69 -171 -69c-125 0 -211 92 -211 211c0 159 144 286 299 286c64 0 114 -23 147 -70l10 61h96l-128 -728h-96zM492 258c0 75 -52 135 -132 135c-99 0 -187 -83 -187 -182c0 -76 52 -134 131 -134c102 0 188 85 188 181z" />
    <glyph glyph-name="r" unicode="r" horiz-adv-x="378" 
d="M80 0l84 475h96l-10 -57c55 55 104 66 196 66l-16 -92c-157 0 -197 -64 -211 -146l-43 -246h-96z" />
    <glyph glyph-name="s" unicode="s" horiz-adv-x="433" 
d="M107 123c41 -39 90 -49 124 -49c57 0 90 26 90 61c0 80 -214 38 -214 178c0 97 81 171 192 171c40 0 105 -10 151 -54l-63 -71c-37 31 -78 37 -103 37c-53 0 -78 -28 -78 -56c0 -77 211 -43 211 -184c0 -102 -84 -169 -204 -169c-71 0 -129 25 -171 62z" />
    <glyph glyph-name="scaron" unicode="&#x161;" horiz-adv-x="433" 
d="M233 731l96 -112l137 112l52 -57l-163 -133h-66l-114 136zM107 123c41 -39 90 -49 124 -49c57 0 90 26 90 61c0 80 -214 38 -214 178c0 97 81 171 192 171c40 0 105 -10 151 -54l-63 -71c-37 31 -78 37 -103 37c-53 0 -78 -28 -78 -56c0 -77 211 -43 211 -184
c0 -102 -84 -169 -204 -169c-71 0 -129 25 -171 62z" />
    <glyph glyph-name="germandbls" unicode="&#xdf;" horiz-adv-x="590" 
d="M242 0l16 89h70c117 0 161 77 161 149c0 60 -37 107 -127 107h-59l15 87h66c64 0 111 54 111 126c0 51 -28 92 -93 92c-93 0 -125 -77 -141 -169l-85 -481h-96l86 485c28 158 105 255 251 255c115 0 178 -65 178 -158c0 -96 -57 -161 -112 -188c67 -22 102 -81 102 -152
c0 -147 -124 -242 -282 -242h-61z" />
    <glyph glyph-name="t" unicode="t" horiz-adv-x="350" 
d="M305 -2c-11 -4 -42 -11 -77 -11c-117 0 -124 77 -110 159l42 238h-75l16 91h75l28 161h97l-28 -161h129l-16 -91h-129l-40 -227c-10 -54 -2 -80 49 -80c17 0 43 3 54 7z" />
    <glyph glyph-name="u" unicode="u" horiz-adv-x="575" 
d="M491 475h96l-50 -282c-26 -149 -119 -206 -252 -206s-206 57 -180 206l50 282h97l-45 -255c-16 -89 -4 -143 94 -143c99 0 129 54 145 143z" />
    <glyph glyph-name="uacute" unicode="&#xfa;" horiz-adv-x="575" 
d="M330 542l-31 75l236 114l32 -82zM491 475h96l-50 -282c-26 -149 -119 -206 -252 -206s-206 57 -180 206l50 282h97l-45 -255c-16 -89 -4 -143 94 -143c99 0 129 54 145 143z" />
    <glyph glyph-name="ucircumflex" unicode="&#xfb;" horiz-adv-x="575" 
d="M499 541l-96 112l-137 -112l-52 57l163 133h66l114 -136zM491 475h96l-50 -282c-26 -149 -119 -206 -252 -206s-206 57 -180 206l50 282h97l-45 -255c-16 -89 -4 -143 94 -143c99 0 129 54 145 143z" />
    <glyph glyph-name="udieresis" unicode="&#xfc;" horiz-adv-x="575" 
d="M279 555c-33 0 -55 24 -55 56c0 41 37 73 78 73c33 0 54 -23 54 -53c0 -42 -35 -76 -77 -76zM484 555c-33 0 -55 24 -55 56c0 41 37 73 78 73c33 0 54 -23 54 -53c0 -42 -35 -76 -77 -76zM491 475h96l-50 -282c-26 -149 -119 -206 -252 -206s-206 57 -180 206l50 282h97
l-45 -255c-16 -89 -4 -143 94 -143c99 0 129 54 145 143z" />
    <glyph glyph-name="ugrave" unicode="&#xf9;" horiz-adv-x="575" 
d="M451 541l-210 111l47 78l203 -119zM491 475h96l-50 -282c-26 -149 -119 -206 -252 -206s-206 57 -180 206l50 282h97l-45 -255c-16 -89 -4 -143 94 -143c99 0 129 54 145 143z" />
    <glyph glyph-name="v" unicode="v" horiz-adv-x="514" 
d="M206 0l-112 475h99l79 -355l207 355h109l-279 -475h-103z" />
    <glyph glyph-name="w" unicode="w" horiz-adv-x="818" 
d="M529 0l-59 342l-180 -342h-102l-94 475h102l61 -350l187 350h97l63 -350l185 350h103l-263 -475h-100z" />
    <glyph glyph-name="x" unicode="x" horiz-adv-x="466" 
d="M349 0l-87 174l-140 -174h-112l210 258l-111 217h108l75 -149l120 149h113l-190 -233l121 -242h-107z" />
    <glyph glyph-name="y" unicode="y" horiz-adv-x="485" 
d="M72 -253l130 244l-109 484h99l73 -357l191 357h102l-391 -728h-95z" />
    <glyph glyph-name="yacute" unicode="&#xfd;" horiz-adv-x="485" 
d="M292 542l-31 75l236 114l32 -82zM72 -253l130 244l-109 484h99l73 -357l191 357h102l-391 -728h-95z" />
    <glyph glyph-name="ydieresis" unicode="&#xff;" horiz-adv-x="485" 
d="M243 555c-33 0 -55 24 -55 56c0 41 37 73 78 73c33 0 54 -23 54 -53c0 -42 -35 -76 -77 -76zM448 555c-33 0 -55 24 -55 56c0 41 37 73 78 73c33 0 54 -23 54 -53c0 -42 -35 -76 -77 -76zM72 -253l130 244l-109 484h99l73 -357l191 357h102l-391 -728h-95z" />
    <glyph glyph-name="z" unicode="z" horiz-adv-x="476" 
d="M50 0l16 88l301 296h-249l16 91h376l-16 -88l-300 -297h248l-16 -90h-376z" />
    <glyph glyph-name="zcaron" unicode="&#x17e;" horiz-adv-x="476" 
d="M250 731l96 -112l137 112l52 -57l-163 -133h-66l-114 136zM50 0l16 88l301 296h-249l16 91h376l-16 -88l-300 -297h248l-16 -90h-376z" />
    <glyph glyph-name="g.ss01" horiz-adv-x="537" 
d="M221 -258c-105 0 -182 72 -182 165c0 76 52 142 130 179c-49 32 -76 89 -76 149c0 133 125 249 259 249c22 0 43 -3 61 -9h163l-14 -76h-53c18 -28 28 -66 28 -104c0 -87 -56 -165 -142 -210c49 -29 76 -78 76 -131c0 -114 -122 -212 -250 -212zM290 130
c77 0 150 68 150 151c0 64 -43 112 -103 112c-78 0 -150 -72 -150 -153c0 -61 41 -110 103 -110zM274 39c-73 0 -138 -48 -138 -118c0 -52 39 -89 101 -89c79 0 138 54 138 119c0 51 -40 88 -101 88z" />
    <glyph glyph-name="g.ss02" horiz-adv-x="504" 
d="M258 29c109 0 169 -57 169 -126c0 -86 -88 -161 -215 -161c-104 0 -160 55 -160 124c0 39 17 76 52 108c-18 14 -28 38 -28 64c0 41 24 76 58 96c-25 32 -36 79 -36 122c0 127 111 228 240 228c21 0 39 -3 57 -9h151l-13 -76h-48c14 -22 23 -55 23 -90
c0 -128 -115 -230 -239 -230c-34 0 -51 8 -68 8c-30 0 -44 -20 -44 -38c0 -15 12 -28 30 -28c22 5 46 8 71 8zM282 166c76 0 131 65 131 136c0 55 -34 96 -91 96c-73 0 -131 -60 -131 -135c0 -56 34 -97 91 -97zM335 -107c0 31 -28 57 -87 57c-73 0 -105 -36 -105 -74
c0 -29 24 -54 83 -54c71 0 109 33 109 71z" />
    <glyph glyph-name="ordfeminine" unicode="&#xaa;" horiz-adv-x="451" 
d="M397 407l7 40c-33 -36 -76 -49 -117 -49c-87 0 -140 62 -140 143c0 106 89 198 200 198c42 0 81 -14 99 -50l8 43h76l-57 -325h-76zM304 465c66 0 124 45 124 120c0 54 -37 86 -90 86c-75 0 -115 -59 -115 -123c0 -49 28 -83 81 -83z" />
    <glyph glyph-name="ordmasculine" unicode="&#xba;" horiz-adv-x="448" 
d="M502 595c0 -106 -99 -196 -207 -196c-85 0 -147 62 -147 145c0 104 97 197 207 197c86 0 147 -63 147 -146zM308 471c65 0 117 53 117 115c0 46 -31 83 -83 83c-65 0 -117 -54 -117 -115c0 -47 33 -83 83 -83z" />
    <glyph glyph-name="zero" unicode="0" horiz-adv-x="586" 
d="M579 270c-26 -148 -117 -283 -288 -283c-165 0 -216 126 -188 283l38 216c25 141 126 267 285 267c152 0 217 -117 191 -267zM513 472c17 95 0 187 -104 187c-101 0 -153 -85 -171 -187l-34 -195c-18 -102 -11 -197 103 -197c109 0 152 86 172 197z" />
    <glyph glyph-name="one" unicode="1" horiz-adv-x="375" 
d="M153 0l113 643h-123l17 97h225l-130 -740h-102z" />
    <glyph glyph-name="two" unicode="2" horiz-adv-x="560" 
d="M36 0l17 97l254 215c130 110 182 167 182 248c0 62 -38 106 -105 106c-71 0 -124 -46 -151 -128h-99c39 137 136 215 267 215c115 0 194 -65 194 -174c0 -115 -76 -201 -181 -291l-226 -192h317l-17 -96h-452z" />
    <glyph glyph-name="three" unicode="3" horiz-adv-x="597" 
d="M310 80c73 0 157 46 157 160c0 74 -51 110 -137 110l16 94h35c76 0 132 58 132 128c0 52 -34 90 -91 90c-73 0 -118 -59 -131 -125h-101c24 119 115 216 250 216c113 0 176 -72 176 -166c0 -82 -45 -153 -125 -190c60 -29 84 -83 84 -143c0 -155 -129 -267 -280 -267
c-137 0 -211 97 -193 227h102c-10 -84 31 -134 106 -134z" />
    <glyph glyph-name="four" unicode="4" horiz-adv-x="596" 
d="M375 0l22 126h-340l16 89l429 525h103l-92 -522h76l-16 -92h-76l-22 -126h-100zM477 580h-1l-291 -362h228z" />
    <glyph glyph-name="five" unicode="5" horiz-adv-x="591" 
d="M350 646l-63 -177c37 18 76 25 111 25c124 0 200 -91 200 -209c0 -168 -142 -298 -302 -298c-135 0 -220 98 -213 228h102c-1 -64 32 -135 125 -135c106 0 186 86 186 193c0 76 -47 131 -127 131c-43 0 -96 -15 -137 -53l-65 54l117 335h347l-21 -94h-260z" />
    <glyph glyph-name="six" unicode="6" horiz-adv-x="582" 
d="M410 740h110l-198 -284c26 10 47 13 68 13c111 0 191 -93 191 -206c0 -149 -140 -276 -291 -276c-121 0 -209 90 -209 205c0 59 23 114 83 199zM360 380c-93 0 -180 -80 -180 -172c0 -72 52 -129 127 -129c92 0 176 80 176 173c0 71 -50 128 -123 128z" />
    <glyph glyph-name="seven" unicode="7" horiz-adv-x="530" 
d="M72 0l409 643h-348l17 97h455l-17 -97l-406 -643h-110z" />
    <glyph glyph-name="eight" unicode="8" horiz-adv-x="628" 
d="M546 452c46 -39 74 -103 74 -172c0 -158 -148 -293 -308 -293c-128 0 -218 97 -218 220c0 102 61 191 149 246c-15 23 -23 55 -23 85c0 116 110 215 227 215c95 0 160 -71 160 -162c0 -53 -23 -100 -61 -139zM467 492c25 23 40 54 40 87c0 47 -29 82 -76 82
c-61 0 -112 -53 -112 -114c0 -21 6 -41 17 -55c22 6 43 9 64 9c24 0 46 -4 67 -9zM521 268c0 77 -54 140 -135 140c-101 0 -192 -89 -192 -189c0 -77 53 -140 134 -140c101 0 193 89 193 189z" />
    <glyph glyph-name="nine" unicode="9" horiz-adv-x="582" 
d="M192 0l198 283c-26 -10 -47 -12 -64 -12c-115 0 -195 93 -195 205c0 149 139 277 291 277c121 0 209 -90 209 -206c0 -57 -19 -106 -83 -198l-246 -349h-110zM532 531c0 72 -52 130 -127 130c-92 0 -176 -81 -176 -173c0 -71 49 -128 123 -128c93 0 180 80 180 171z" />
    <glyph glyph-name="zero.osf" horiz-adv-x="580" 
d="M586 270c0 -152 -147 -283 -299 -283c-122 0 -209 94 -209 213c0 151 143 284 297 284c123 0 211 -95 211 -214zM489 259c0 74 -53 134 -129 134c-99 0 -186 -88 -186 -182c0 -73 53 -134 130 -134c98 0 185 87 185 182z" />
    <glyph glyph-name="one.osf" horiz-adv-x="305" 
d="M123 0l68 386h-108l16 89h205l-84 -475h-97z" />
    <glyph glyph-name="two.osf" horiz-adv-x="414" 
d="M40 0l15 85c234 116 290 202 290 255c0 30 -18 58 -61 58s-87 -25 -101 -86h-89c21 101 95 172 206 172c91 0 139 -51 139 -125c0 -88 -58 -192 -273 -278l231 3l-15 -84h-342z" />
    <glyph glyph-name="three.osf" horiz-adv-x="509" 
d="M245 130l15 89h31c64 0 106 55 106 107c0 41 -28 72 -74 72c-62 0 -101 -51 -110 -101h-95c18 101 103 187 218 187c96 0 158 -63 158 -146c0 -67 -38 -129 -107 -162c49 -24 73 -73 73 -128c0 -135 -122 -226 -247 -226c-121 0 -185 88 -170 196h95
c-7 -62 25 -109 94 -109c77 0 131 55 131 125c0 51 -32 96 -89 96h-29z" />
    <glyph glyph-name="four.osf" horiz-adv-x="522" 
d="M281 -168l30 168h-276l16 93l344 384h94l-68 -388h77l-16 -89h-77l-30 -168h-94zM368 334h-1l-213 -245h171z" />
    <glyph glyph-name="five.osf" horiz-adv-x="517" 
d="M278 386l-47 -124c27 14 59 21 92 21c116 0 173 -89 173 -186c0 -142 -122 -275 -273 -275c-124 0 -207 95 -191 217h88c-7 -74 33 -128 112 -128c95 0 167 74 167 166c0 67 -42 116 -111 116c-41 0 -87 -16 -119 -47l-61 42l99 287h293l-15 -89h-207z" />
    <glyph glyph-name="six.osf" horiz-adv-x="529" 
d="M285 415c25 10 43 13 63 13c104 0 180 -86 180 -191c0 -134 -131 -250 -267 -250c-109 0 -188 85 -188 191c0 86 8 101 293 484h104zM432 227c0 63 -44 113 -108 113c-82 0 -155 -73 -155 -151c0 -62 44 -112 109 -112c82 0 154 72 154 150z" />
    <glyph glyph-name="seven.osf" horiz-adv-x="418" 
d="M31 -168l336 554h-294l15 89h393l-15 -88l-335 -555h-100z" />
    <glyph glyph-name="eight.osf" horiz-adv-x="545" 
d="M480 404c41 -35 67 -93 67 -155c0 -142 -135 -262 -277 -262c-114 0 -195 87 -195 197c0 90 54 170 132 220c-13 21 -19 49 -19 76c0 105 99 193 203 193c85 0 144 -63 144 -145c0 -46 -20 -88 -55 -124zM402 442c24 17 39 44 39 73c0 39 -26 69 -66 69
c-49 0 -93 -42 -93 -93c0 -19 6 -37 16 -49c17 4 34 7 52 7s36 -3 52 -7zM452 238c0 66 -47 121 -116 121c-86 0 -166 -79 -166 -162c0 -66 47 -120 116 -120c88 0 166 77 166 161z" />
    <glyph glyph-name="nine.osf" horiz-adv-x="529" 
d="M141 -191l186 247c-25 -11 -44 -14 -64 -14c-104 0 -180 86 -180 190c0 135 132 252 266 252c110 0 189 -85 189 -191c0 -89 -14 -110 -293 -484h-104zM333 394c-82 0 -155 -72 -155 -151c0 -62 45 -112 109 -112c82 0 155 72 155 151c0 61 -44 112 -109 112z" />
    <glyph glyph-name="uni00B9" unicode="&#xb9;" horiz-adv-x="248" 
d="M172 296l66 374h-80l12 70h158l-78 -444h-78z" />
    <glyph glyph-name="uni00B2" unicode="&#xb2;" horiz-adv-x="387" 
d="M94 296l11 64l184 148c37 30 82 72 82 117c0 32 -23 53 -60 53c-53 0 -79 -42 -88 -86h-77c17 97 90 155 180 155c78 0 126 -47 126 -113c0 -61 -41 -117 -104 -166l-132 -102h188l-12 -70h-298z" />
    <glyph glyph-name="uni00B3" unicode="&#xb3;" horiz-adv-x="413" 
d="M286 571h15c40 0 86 19 86 73c0 34 -26 46 -50 46c-40 0 -65 -30 -72 -67h-74l1 8c11 75 85 124 160 124c63 0 114 -38 114 -101c0 -47 -25 -92 -76 -115c36 -16 52 -49 52 -86c0 -95 -85 -163 -180 -163c-84 0 -149 55 -134 154h73c-8 -56 28 -85 73 -85
c48 0 89 29 89 91c0 43 -32 59 -88 59z" />
    <glyph glyph-name="fraction" unicode="&#x2044;" horiz-adv-x="181" 
d="M-153 0l536 740h82l-536 -740h-82z" />
    <glyph glyph-name="onehalf" unicode="&#xbd;" horiz-adv-x="834" 
d="M120 0l536 740h82l-536 -740h-82zM172 296l66 374h-80l12 70h158l-78 -444h-78zM474 0l11 64l185 148c39 31 81 74 81 117c0 32 -23 53 -60 53c-53 0 -79 -42 -88 -86h-77c17 97 90 155 180 155c78 0 126 -47 126 -114c0 -63 -46 -120 -104 -165l-132 -102h188l-12 -70
h-298z" />
    <glyph glyph-name="onequarter" unicode="&#xbc;" horiz-adv-x="775" 
d="M120 0l536 740h82l-536 -740h-82zM172 296l66 374h-80l12 70h158l-78 -444h-78zM587 0l12 69h-207l11 63l253 302h83l-53 -297h53l-12 -68h-53l-12 -69h-75zM645 329l-158 -192h124z" />
    <glyph glyph-name="threequarters" unicode="&#xbe;" horiz-adv-x="891" 
d="M281 571h15c40 0 86 19 86 73c0 34 -26 46 -50 46c-40 0 -65 -30 -72 -67h-74l1 8c11 75 85 124 160 124c63 0 114 -38 114 -101c0 -47 -25 -92 -76 -115c36 -16 52 -49 52 -86c0 -95 -85 -163 -180 -163c-84 0 -149 55 -134 154h73c-8 -56 28 -85 73 -85
c48 0 89 29 89 91c0 43 -32 59 -88 59zM237 0l537 740h82l-537 -740h-82zM704 0l12 69h-208l11 63l253 302h83l-53 -297h53l-12 -68h-53l-12 -69h-74zM762 329l-158 -192h124z" />
    <glyph glyph-name="asterisk" unicode="*" horiz-adv-x="416" 
d="M331 525l-16 -106h-72l22 107l-105 -69l-25 60l108 60l-89 52l44 62l88 -57l15 106h73l-22 -106l103 66l27 -60l-107 -58l94 -56l-47 -62z" />
    <glyph glyph-name="backslash" unicode="\" horiz-adv-x="507" 
d="M409 0l-277 740h96l277 -740h-96z" />
    <glyph glyph-name="periodcentered" unicode="&#xb7;" horiz-adv-x="323" 
d="M196 193c-31 0 -52 23 -52 53c0 39 35 70 74 70c31 0 51 -22 51 -51c0 -40 -34 -72 -73 -72z" />
    <glyph glyph-name="bullet" unicode="&#x2022;" horiz-adv-x="480" 
d="M277 209c-82 0 -138 65 -138 144c0 103 96 191 198 191c83 0 137 -66 137 -143c0 -102 -95 -192 -197 -192z" />
    <glyph glyph-name="colon" unicode=":" horiz-adv-x="323" 
d="M224 351c-31 0 -52 23 -52 53c0 39 35 71 74 71c31 0 51 -23 51 -52c0 -40 -34 -72 -73 -72zM161 -6c-31 0 -52 23 -52 53c0 39 35 70 74 70c31 0 51 -22 51 -51c0 -40 -34 -72 -73 -72z" />
    <glyph glyph-name="comma" unicode="," horiz-adv-x="324" 
d="M100 -72c25 4 59 30 69 67c-4 -1 -10 -1 -12 -1c-28 0 -49 22 -49 52c0 39 34 71 75 71c35 0 51 -27 51 -65c0 -71 -61 -172 -143 -174z" />
    <glyph glyph-name="ellipsis" unicode="&#x2026;" horiz-adv-x="970" 
d="M161 -6c-31 0 -52 23 -52 53c0 39 35 70 74 70c31 0 51 -22 51 -51c0 -40 -34 -72 -73 -72zM484 -6c-31 0 -52 23 -52 53c0 39 35 70 74 70c31 0 52 -22 52 -52c0 -39 -35 -71 -74 -71zM808 -6c-31 0 -52 23 -52 53c0 39 35 70 74 70c31 0 51 -22 51 -51
c0 -40 -34 -72 -73 -72z" />
    <glyph glyph-name="exclam" unicode="!" horiz-adv-x="320" 
d="M172 203l24 280l46 257h100l-46 -257l-74 -280h-50zM159 -6c-31 0 -52 23 -52 53c0 39 35 70 74 70c31 0 52 -22 52 -52c0 -39 -35 -71 -74 -71z" />
    <glyph glyph-name="exclamdown" unicode="&#xa1;" horiz-adv-x="280" 
d="M290 501c0 -39 -35 -71 -74 -71c-31 0 -52 23 -52 53c0 39 35 71 74 71c31 0 52 -23 52 -53zM55 -192l45 257l75 280h50l-25 -280l-45 -257h-100z" />
    <glyph glyph-name="numbersign" unicode="#" horiz-adv-x="612" 
d="M349 66l57 179h-143l-58 -179h-81l57 179h-108l14 80h120l43 136h-114l14 81h125l56 175h81l-55 -175h143l56 175h81l-55 -175h95l-14 -80h-107l-43 -137h100l-14 -80h-111l-58 -179h-81zM475 462h-143l-43 -137h143z" />
    <glyph glyph-name="period" unicode="." horiz-adv-x="323" 
d="M161 -6c-31 0 -52 23 -52 53c0 39 35 70 74 70c31 0 51 -22 51 -51c0 -40 -34 -72 -73 -72z" />
    <glyph glyph-name="question" unicode="?" horiz-adv-x="538" 
d="M212 196l12 68c19 109 78 133 150 165c70 31 121 58 121 136c0 60 -43 93 -102 93c-78 0 -126 -54 -139 -129h-96c21 125 119 224 257 224c112 0 183 -68 183 -173c0 -133 -82 -178 -176 -222c-53 -25 -89 -44 -99 -100l-11 -62h-100zM226 -6c-31 0 -52 23 -52 53
c0 39 34 70 73 70c31 0 53 -22 53 -52c0 -39 -35 -71 -74 -71z" />
    <glyph glyph-name="questiondown" unicode="&#xbf;" horiz-adv-x="503" 
d="M471 500c0 -39 -35 -71 -74 -71c-31 0 -52 23 -52 53c0 39 35 71 74 71c31 0 52 -23 52 -53zM486 17c-22 -125 -118 -224 -257 -224c-111 0 -182 68 -182 174c0 134 80 174 176 221c57 27 89 46 98 100l11 63h100l-12 -69c-19 -109 -78 -132 -150 -164
c-63 -28 -121 -57 -121 -137c0 -59 43 -92 103 -92c78 0 125 54 138 128h96z" />
    <glyph glyph-name="quotedbl" unicode="&#x22;" horiz-adv-x="434" 
d="M175 484l30 256h107l-61 -256h-76zM352 484l30 256h107l-61 -256h-76z" />
    <glyph glyph-name="quotesingle" unicode="'" horiz-adv-x="257" 
d="M175 484l30 256h107l-61 -256h-76z" />
    <glyph glyph-name="semicolon" unicode=";" horiz-adv-x="324" 
d="M223 351c-31 0 -52 23 -52 53c0 39 35 71 74 71c31 0 51 -23 51 -52c0 -40 -33 -72 -73 -72zM100 -72c25 4 59 30 69 67c-4 -1 -10 -1 -12 -1c-28 0 -49 22 -49 52c0 39 34 71 75 71c35 0 51 -27 51 -65c0 -71 -61 -172 -143 -174z" />
    <glyph glyph-name="slash" unicode="/" horiz-adv-x="507" 
d="M2 0l536 740h96l-536 -740h-96z" />
    <glyph glyph-name="underscore" unicode="_" horiz-adv-x="558" 
d="M3 -81l14 81h523l-14 -81h-523z" />
    <glyph glyph-name="braceleft" unicode="{" horiz-adv-x="352" 
d="M209 -204c-73 0 -94 66 -83 131l31 175c9 53 2 116 -98 119l16 92c100 3 131 68 140 120l31 175c11 65 56 131 129 131h97l-13 -74h-53c-43 0 -57 -54 -63 -86l-31 -176c-10 -55 -50 -117 -141 -135c85 -11 102 -90 91 -150l-29 -161c-6 -32 -10 -86 33 -86h53l-13 -75
h-97z" />
    <glyph glyph-name="braceright" unicode="}" horiz-adv-x="352" 
d="M-26 -204l13 75h53c43 0 57 54 63 86l29 161c11 60 54 139 143 150c-85 18 -103 80 -93 135l31 176c6 32 10 86 -33 86h-53l13 74h97c73 0 95 -66 83 -131l-31 -175c-9 -52 0 -117 98 -120l-16 -92c-102 -3 -131 -66 -140 -119l-31 -175c-11 -65 -56 -131 -129 -131h-97z
" />
    <glyph glyph-name="bracketleft" unicode="[" horiz-adv-x="321" 
d="M24 -202l166 942h251l-16 -91h-149l-134 -762h149l-16 -89h-251z" />
    <glyph glyph-name="bracketright" unicode="]" horiz-adv-x="321" 
d="M-26 -202l16 89h149l134 762h-149l16 91h251l-166 -942h-251z" />
    <glyph glyph-name="parenleft" unicode="(" horiz-adv-x="371" 
d="M279 -201c-95 62 -190 194 -190 389c0 296 199 480 358 564l33 -77c-119 -65 -287 -227 -287 -472c0 -165 79 -281 146 -328z" />
    <glyph glyph-name="parenright" unicode=")" horiz-adv-x="371" 
d="M-12 -125c114 63 288 227 288 475c0 162 -77 278 -147 325l61 77c94 -61 189 -194 189 -389c0 -296 -198 -479 -357 -564z" />
    <glyph glyph-name="emdash" unicode="&#x2014;" horiz-adv-x="1024" 
d="M56 224l16 92h989l-16 -92h-989z" />
    <glyph glyph-name="endash" unicode="&#x2013;" horiz-adv-x="579" 
d="M56 224l16 92h544l-16 -92h-544z" />
    <glyph glyph-name="hyphen" unicode="-" horiz-adv-x="417" 
d="M104 224l16 92h287l-16 -92h-287z" />
    <glyph glyph-name="uni00AD" unicode="&#xad;" horiz-adv-x="600" 
d="M104 224l16 92h287l-16 -92h-287z" />
    <glyph glyph-name="guillemotleft" unicode="&#xab;" horiz-adv-x="517" 
d="M177 52l-92 201l162 199h106l-159 -199l91 -201h-108zM379 52l-92 201l162 199h106l-159 -199l91 -201h-108z" />
    <glyph glyph-name="guillemotright" unicode="&#xbb;" horiz-adv-x="517" 
d="M49 52l161 201l-88 199h106l91 -199l-162 -201h-108zM251 52l161 201l-88 199h106l91 -199l-162 -201h-108z" />
    <glyph glyph-name="guilsinglleft" unicode="&#x2039;" horiz-adv-x="315" 
d="M177 52l-92 201l162 199h106l-159 -199l91 -201h-108z" />
    <glyph glyph-name="guilsinglright" unicode="&#x203a;" horiz-adv-x="315" 
d="M49 52l161 201l-88 199h106l91 -199l-162 -201h-108z" />
    <glyph glyph-name="quotedblbase" unicode="&#x201e;" horiz-adv-x="399" 
d="M50 -72c25 4 59 30 69 67c-3 -1 -9 -1 -11 -1c-29 0 -50 22 -50 52c0 39 34 71 74 71c35 0 53 -27 53 -65c0 -72 -62 -172 -144 -175zM225 -72c25 4 59 30 69 67c-3 -1 -9 -1 -11 -1c-29 0 -50 22 -50 52c0 39 34 71 74 71c36 0 53 -27 53 -65c0 -72 -62 -172 -144 -175z
" />
    <glyph glyph-name="quotedblleft" unicode="&#x201c;" horiz-adv-x="399" 
d="M283 690c-25 -4 -60 -30 -69 -67c3 1 9 1 11 1c28 0 49 -22 49 -52c0 -39 -33 -71 -74 -71c-35 0 -52 27 -52 65c0 72 61 172 144 175zM458 690c-25 -4 -60 -30 -69 -67c3 1 9 1 11 1c28 0 49 -22 49 -52c0 -39 -34 -71 -74 -71c-35 0 -52 27 -52 65c0 72 61 172 144 175
z" />
    <glyph glyph-name="quotedblright" unicode="&#x201d;" horiz-adv-x="399" 
d="M161 557c25 4 59 30 69 67c-3 -1 -9 -1 -11 -1c-29 0 -50 22 -50 52c0 39 34 71 74 71c36 0 53 -27 53 -65c0 -72 -62 -172 -144 -175zM336 557c25 4 59 30 69 67c-3 -1 -9 -1 -11 -1c-29 0 -50 22 -50 52c0 39 34 71 74 71c36 0 53 -27 53 -65c0 -72 -62 -172 -144 -175
z" />
    <glyph glyph-name="quoteleft" unicode="&#x2018;" horiz-adv-x="224" 
d="M282 690c-24 -4 -59 -30 -68 -67c3 1 9 1 11 1c28 0 49 -22 49 -52c0 -39 -35 -71 -75 -71c-35 0 -51 27 -51 64c0 73 62 173 143 176z" />
    <glyph glyph-name="quoteright" unicode="&#x2019;" horiz-adv-x="224" 
d="M161 556c25 4 59 30 69 67c-3 -1 -9 -1 -11 -1c-28 0 -50 22 -50 52c0 39 34 71 75 71c35 0 52 -27 52 -65c0 -73 -62 -172 -144 -175z" />
    <glyph glyph-name="quotesinglbase" unicode="&#x201a;" horiz-adv-x="224" 
d="M50 -72c25 4 59 30 69 67c-4 -1 -10 -1 -12 -1c-28 0 -49 22 -49 52c0 39 34 71 75 71c35 0 51 -27 51 -65c0 -71 -61 -172 -143 -174z" />
    <glyph glyph-name="space" unicode=" " horiz-adv-x="270" 
 />
    <glyph glyph-name="uni00A0" unicode="&#xa0;" horiz-adv-x="270" 
 />
    <glyph glyph-name="cent" unicode="&#xa2;" horiz-adv-x="593" 
d="M259 0l22 128c-93 22 -155 106 -155 207c0 132 110 250 241 278l22 127h89l-22 -123c74 -10 130 -54 158 -115l-89 -46c-16 34 -47 59 -85 68l-54 -309c44 9 84 35 112 72l72 -47c-50 -62 -123 -106 -201 -116l-21 -124h-89zM222 346c0 -55 29 -104 76 -124l52 295
c-72 -26 -128 -95 -128 -171z" />
    <glyph glyph-name="currency" unicode="&#xa4;" horiz-adv-x="612" 
d="M472 152c-46 -29 -97 -45 -149 -45s-99 17 -134 46l-95 -80l-44 53l95 81c-17 29 -26 69 -26 107c0 64 29 123 75 172l-67 81l63 54l68 -82c45 29 97 46 149 46c51 0 97 -16 131 -45l96 81l44 -54l-94 -80c17 -30 26 -70 26 -108c0 -65 -30 -123 -76 -173l67 -80l-63 -54
zM512 366c0 69 -50 125 -122 125c-88 0 -173 -77 -173 -165c0 -69 52 -124 122 -124c87 0 173 77 173 164z" />
    <glyph glyph-name="dollar" unicode="$" horiz-adv-x="570" 
d="M137 183c28 -45 65 -91 131 -101l46 260c-72 32 -144 73 -144 172c0 117 83 212 215 234l13 73h89l-12 -70c53 -6 101 -26 145 -68l-71 -78c-26 26 -56 43 -91 50l-42 -238c72 -31 145 -71 145 -173c0 -129 -93 -226 -220 -251l-13 -73h-89l12 69c-83 8 -153 49 -191 123
zM276 541c0 -41 23 -67 57 -86l35 197c-59 -16 -92 -58 -92 -111zM456 218c0 40 -25 66 -60 86l-38 -212c60 23 98 73 98 126z" />
    <glyph glyph-name="Euro" unicode="&#x20ac;" horiz-adv-x="591" 
d="M571 177c-27 -108 -116 -190 -248 -190c-156 0 -210 114 -192 266h-86l43 78h57l12 70h-76l43 78h47c27 144 126 274 287 274c120 0 194 -72 182 -191h-100c1 62 -34 97 -98 97c-97 0 -149 -81 -171 -180h268l-43 -78h-239l-12 -70h225l-43 -78h-195
c-11 -96 6 -173 106 -173c69 0 120 38 136 97h97z" />
    <glyph glyph-name="florin" unicode="&#x192;" horiz-adv-x="308" 
d="M2 -99c9 0 20 1 26 2c33 5 51 18 60 66l73 415h-72l16 91h73l12 69c3 14 5 28 8 42c21 84 74 132 160 136c19 1 34 -1 48 -3l-15 -86c-11 0 -21 0 -29 -2c-55 -10 -65 -30 -77 -97l-10 -59h91l-16 -91h-92l-75 -425c-15 -83 -59 -127 -132 -141c-22 -4 -43 -5 -64 -3z
" />
    <glyph glyph-name="sterling" unicode="&#xa3;" horiz-adv-x="570" 
d="M27 0l16 88c147 54 166 154 166 207v15h-101l16 93h69c-7 28 -13 63 -13 98c0 127 91 252 266 252c141 0 199 -86 190 -210h-102c-2 69 -27 118 -107 118c-104 0 -142 -76 -142 -148c0 -36 7 -76 14 -110h213l-16 -93h-186v-17c0 -64 -37 -145 -139 -200h377l-16 -93
h-505z" />
    <glyph glyph-name="yen" unicode="&#xa5;" horiz-adv-x="649" 
d="M407 180l-32 -180h-103l32 180h-227l15 83h227l8 47l-4 38h-216l14 83h164l-144 309h118l142 -306l252 306h117l-256 -309h160l-14 -83h-212l-18 -38l-8 -47h223l-15 -83h-223z" />
    <glyph glyph-name="plus" unicode="+" horiz-adv-x="630" 
d="M282 80l39 219h-218l16 93h218l39 219h93l-39 -219h219l-16 -93h-219l-39 -219h-93z" />
    <glyph glyph-name="minus" unicode="&#x2212;" horiz-adv-x="630" 
d="M103 299l16 93h530l-16 -93h-530z" />
    <glyph glyph-name="multiply" unicode="&#xd7;" horiz-adv-x="578" 
d="M338 279l-197 -168l-55 65l199 169l-139 167l77 66l138 -168l198 168l53 -66l-196 -167l138 -169l-77 -65z" />
    <glyph glyph-name="divide" unicode="&#xf7;" horiz-adv-x="630" 
d="M398 469c-31 0 -52 23 -52 53c0 39 35 70 74 70c31 0 51 -22 51 -51c0 -40 -34 -72 -73 -72zM103 299l16 93h530l-16 -93h-530zM333 99c-31 0 -52 23 -52 53c0 39 35 71 74 71c31 0 51 -23 51 -52c0 -40 -34 -72 -73 -72z" />
    <glyph glyph-name="equal" unicode="=" horiz-adv-x="629" 
d="M128 409l16 93h519l-16 -93h-519zM89 190l16 93h519l-16 -93h-519z" />
    <glyph glyph-name="greater" unicode="&#x3e;" horiz-adv-x="453" 
d="M112 6l-59 65l328 275l-231 274l81 66l283 -340z" />
    <glyph glyph-name="less" unicode="&#x3c;" horiz-adv-x="453" 
d="M344 6l-283 340l403 340l57 -66l-327 -274l232 -275z" />
    <glyph glyph-name="plusminus" unicode="&#xb1;" horiz-adv-x="640" 
d="M429 360l-35 -204h-93l35 204h-218l17 93h218l36 204h93l-36 -204h219l-17 -93h-219zM55 0l16 93h530l-16 -93h-530z" />
    <glyph glyph-name="logicalnot" unicode="&#xac;" horiz-adv-x="646" 
d="M507 80l39 220h-443l16 93h536l-55 -313h-93z" />
    <glyph glyph-name="asciitilde" unicode="~" horiz-adv-x="598" 
d="M613 397l1 -17c0 -85 -73 -148 -160 -148c-95 0 -124 80 -212 80c-45 0 -66 -21 -73 -60c-1 -6 -3 -12 -3 -19h-70v17c0 89 71 148 168 148c110 0 127 -80 206 -80c44 0 65 25 71 61c1 6 2 12 2 18h70z" />
    <glyph glyph-name="uni00B5" unicode="&#xb5;" horiz-adv-x="583" 
d="M35 -253l128 728h96l-45 -255c-16 -89 -4 -143 95 -143c98 0 128 54 144 143l45 255h98l-50 -282c-26 -149 -123 -206 -247 -206c-57 0 -91 12 -117 49l-51 -289h-96z" />
    <glyph glyph-name="percent" unicode="%" horiz-adv-x="911" 
d="M532 596c0 -115 -111 -213 -225 -213c-92 0 -159 71 -159 161c0 115 111 213 225 213c92 0 159 -71 159 -161zM210 0l537 740h87l-537 -740h-87zM321 465c65 0 124 56 124 121c0 50 -36 89 -87 89c-65 0 -123 -56 -123 -121c0 -50 35 -89 86 -89zM895 199
c0 -115 -111 -213 -225 -213c-92 0 -159 71 -159 161c0 115 111 213 225 213c92 0 159 -71 159 -161zM684 67c65 0 124 57 124 122c0 49 -35 88 -87 88c-64 0 -123 -54 -123 -120c0 -50 35 -90 86 -90z" />
    <glyph glyph-name="perthousand" unicode="&#x2030;" horiz-adv-x="1321" 
d="M532 596c0 -115 -111 -213 -225 -213c-92 0 -159 71 -159 161c0 115 111 213 225 213c92 0 159 -71 159 -161zM210 0l537 740h87l-537 -740h-87zM321 465c65 0 124 56 124 121c0 50 -36 89 -87 89c-65 0 -123 -56 -123 -121c0 -50 35 -89 86 -89zM895 199
c0 -115 -111 -213 -225 -213c-92 0 -159 71 -159 161c0 115 111 213 225 213c92 0 159 -71 159 -161zM1305 199c0 -115 -111 -213 -225 -213c-92 0 -159 71 -159 161c0 115 111 213 225 213c92 0 159 -71 159 -161zM684 67c65 0 124 57 124 122c0 49 -35 88 -87 88
c-64 0 -123 -54 -123 -120c0 -50 35 -90 86 -90zM1094 67c65 0 124 57 124 122c0 49 -35 88 -87 88c-64 0 -123 -54 -123 -120c0 -50 35 -90 86 -90z" />
    <glyph glyph-name="uniF8FF" unicode="&#xf8ff;" horiz-adv-x="871" 
d="M239 717h372v-120h-246v-189c130 -46 253 -159 392 -159c26 0 47 4 47 4s-21 -32 -97 -32c-112 0 -242 61 -342 113v-334h-126v386s-24 10 -52 10c-42 0 -78 -18 -78 -57c0 -26 15 -49 37 -57c-35 2 -56 26 -56 63c0 52 45 90 126 90c6 0 14 0 23 -2v284z" />
    <glyph glyph-name="at" unicode="@" horiz-adv-x="965" 
d="M718 -180c-68 -40 -157 -82 -275 -82c-207 0 -369 137 -369 372c0 347 288 530 539 530c187 0 353 -113 353 -326c0 -172 -105 -340 -245 -340c-61 0 -98 34 -100 89c-51 -59 -118 -77 -170 -77c-104 0 -163 75 -163 171c0 132 103 242 239 242c53 0 98 -18 127 -62
l10 55h89l-47 -265c-7 -41 5 -66 36 -66c70 0 130 114 130 227c0 148 -98 264 -270 264c-196 0 -436 -133 -436 -432c0 -190 126 -298 299 -298c78 0 152 21 220 62zM625 212c0 60 -39 107 -105 107c-85 0 -144 -68 -144 -150c0 -60 35 -104 99 -104c86 0 150 68 150 147z
" />
    <glyph glyph-name="ampersand" unicode="&#x26;" horiz-adv-x="647" 
d="M300 0c-134 0 -211 75 -211 182c0 90 49 175 155 211c-51 26 -74 80 -74 135c0 119 109 225 246 225c52 0 95 -16 126 -48l-64 -74c-21 20 -49 31 -80 31c-69 0 -127 -53 -127 -124c0 -55 37 -99 104 -99h113l21 119h102l-21 -119h84l-17 -96h-84l-43 -247h84l-17 -96
h-297zM471 343h-107c-78 0 -170 -30 -170 -141c0 -72 56 -107 132 -107h101z" />
    <glyph glyph-name="paragraph" unicode="&#xb6;" horiz-adv-x="708" 
d="M439 -193l151 855h-116l-151 -855h-85l82 465c-132 13 -208 90 -208 196c0 129 107 272 299 272h396l-14 -78h-119l-151 -855h-84zM389 664c-131 0 -195 -93 -195 -180c0 -68 41 -131 139 -138z" />
    <glyph glyph-name="section" unicode="&#xa7;" horiz-adv-x="563" 
d="M175 27c-9 -63 27 -109 93 -109c59 0 121 35 121 94c0 118 -290 123 -290 289c0 75 49 122 117 165c-13 22 -20 48 -20 75c0 118 111 186 221 186c106 0 174 -66 161 -178h-99c5 49 -30 84 -79 84c-52 0 -95 -37 -95 -83c0 -108 261 -122 261 -269
c0 -70 -55 -126 -109 -160c24 -25 33 -58 33 -91c0 -130 -120 -206 -237 -206c-122 0 -193 87 -177 203h99zM400 171c34 19 61 57 61 86c0 69 -123 115 -195 153c-31 -19 -64 -53 -64 -86c0 -71 134 -115 198 -153z" />
    <glyph glyph-name="copyright" unicode="&#xa9;" horiz-adv-x="864" 
d="M885 425c0 -235 -222 -437 -455 -437c-188 0 -321 144 -321 327c0 238 222 437 456 437c188 0 320 -145 320 -327zM442 56c192 0 370 167 370 359c0 149 -106 269 -261 269c-192 0 -369 -167 -369 -360c0 -149 105 -268 260 -268zM678 257c-49 -64 -127 -106 -205 -106
c-106 0 -184 83 -184 188c0 130 126 251 261 251c78 0 139 -43 167 -106l-78 -41c-16 39 -55 66 -104 66c-85 0 -160 -78 -160 -160c0 -65 45 -118 112 -118c51 0 97 28 128 67z" />
    <glyph glyph-name="registered" unicode="&#xae;" horiz-adv-x="864" 
d="M885 425c0 -235 -222 -437 -455 -437c-188 0 -321 144 -321 327c0 238 222 437 456 437c188 0 320 -145 320 -327zM442 56c192 0 370 167 370 359c0 149 -106 269 -261 269c-192 0 -369 -167 -369 -360c0 -149 105 -268 260 -268zM551 153l-73 177h-65l-31 -176h-73
l77 435h133c90 0 177 -7 177 -99c0 -89 -53 -136 -134 -154l76 -183h-87zM503 395c62 0 115 10 115 77c0 43 -37 51 -92 51h-79l-23 -128h79z" />
    <glyph glyph-name="trademark" unicode="&#x2122;" horiz-adv-x="780" 
d="M206 388l50 284h-88l12 68h248l-12 -68h-87l-50 -284h-73zM704 388l43 244l-100 -105h-32l-62 104l-43 -243h-73l62 352h75l73 -126l124 126h69l-62 -352h-74z" />
    <glyph glyph-name="degree" unicode="&#xb0;" horiz-adv-x="380" 
d="M443 592c0 -93 -87 -172 -179 -172c-74 0 -126 57 -126 128c0 93 87 172 179 172c74 0 126 -57 126 -128zM379 583c0 42 -30 74 -73 74c-55 0 -105 -45 -105 -100c0 -42 30 -75 74 -75c55 0 104 46 104 101z" />
    <glyph glyph-name="bar" unicode="|" horiz-adv-x="240" 
d="M45 -140l155 880h100l-155 -880h-100z" />
    <glyph glyph-name="brokenbar" unicode="&#xa6;" horiz-adv-x="240" 
d="M138 390l62 350h100l-62 -350h-100zM45 -140l62 350h100l-62 -350h-100z" />
    <glyph glyph-name="dagger" unicode="&#x2020;" horiz-adv-x="550" 
d="M180 -253l121 686h-178l16 89h178l38 218h100l-38 -218h178l-16 -89h-178l-121 -686h-100z" />
    <glyph glyph-name="daggerdbl" unicode="&#x2021;" horiz-adv-x="560" 
d="M184 -253l47 265h-177l16 88h177l63 362h-177l16 89h177l33 189h101l-33 -189h177l-16 -89h-177l-63 -362h177l-16 -88h-177l-47 -265h-101z" />
    <glyph glyph-name="asciicircum" unicode="^" horiz-adv-x="562" 
d="M486 336l-91 316l-201 -316h-100l265 404h104l123 -404h-100z" />
    <glyph glyph-name="ampersand.ss01" horiz-adv-x="650" 
d="M582 343l-18 -104c-28 -159 -133 -252 -277 -252c-130 0 -199 83 -199 189c0 95 47 178 155 217c-45 24 -73 74 -73 135c0 134 123 225 245 225c54 0 99 -18 131 -52l-66 -75c-19 23 -47 36 -81 36c-71 0 -128 -54 -128 -125c0 -56 38 -98 105 -98h121l21 119h102
l-21 -119h84l-17 -96h-84zM480 343h-118c-111 0 -170 -64 -170 -148c0 -63 40 -115 116 -115c68 0 132 39 152 151z" />
    <glyph glyph-name="ampersand.ss02" horiz-adv-x="623" 
d="M603 375c11 -26 17 -62 17 -94c0 -159 -148 -294 -308 -294c-128 0 -218 97 -218 220c0 102 61 191 148 245c-14 23 -21 55 -21 86c0 117 110 215 226 215c67 0 119 -34 144 -85l-87 -52c-13 29 -39 45 -72 45c-62 0 -111 -53 -111 -112c0 -44 27 -80 76 -80
c41 0 77 24 99 61l71 -51c-41 -61 -113 -102 -187 -102c-26 0 -51 5 -71 15c-66 -33 -115 -99 -115 -173c0 -77 53 -140 134 -140c101 0 193 89 193 189c0 19 -3 41 -9 56z" />
    <glyph glyph-name="acute" unicode="&#xb4;" horiz-adv-x="358" 
d="M190 542l-31 75l233 121l32 -82z" />
    <glyph glyph-name="breve" unicode="&#x2d8;" horiz-adv-x="420" 
d="M456 663c-12 -67 -64 -122 -155 -122c-92 0 -124 56 -112 122h62c-6 -33 13 -56 61 -56s76 22 82 56h62z" />
    <glyph glyph-name="caron" unicode="&#x2c7;" horiz-adv-x="440" 
d="M348 541h-66l-112 137l63 53l96 -112l137 112l44 -53z" />
    <glyph glyph-name="cedilla" unicode="&#xb8;" horiz-adv-x="303" 
d="M60 -88l47 88h51l-25 -44h15c51 0 83 -28 83 -77c0 -71 -55 -116 -121 -116c-44 0 -92 22 -84 100h47c-4 -43 22 -57 47 -57c35 0 63 28 63 65c0 25 -17 41 -51 41h-72z" />
    <glyph glyph-name="circumflex" unicode="&#x2c6;" horiz-adv-x="440" 
d="M432 541l-96 112l-137 -112l-44 53l162 137h66l112 -137z" />
    <glyph glyph-name="dieresis" unicode="&#xa8;" horiz-adv-x="405" 
d="M207 541c-31 0 -52 23 -52 53c0 39 35 70 74 70c31 0 51 -22 51 -51c0 -40 -33 -72 -73 -72zM389 541c-31 0 -52 23 -52 53c0 39 35 70 74 70c31 0 51 -22 51 -51c0 -40 -33 -72 -73 -72z" />
    <glyph glyph-name="dotaccent" unicode="&#x2d9;" horiz-adv-x="223" 
d="M207 541c-31 0 -52 23 -52 53c0 39 35 70 74 70c31 0 51 -22 51 -51c0 -40 -33 -72 -73 -72z" />
    <glyph glyph-name="grave" unicode="`" horiz-adv-x="358" 
d="M165 654l61 84l190 -120l-58 -76z" />
    <glyph glyph-name="hungarumlaut" unicode="&#x2dd;" horiz-adv-x="554" 
d="M201 534l-45 65l205 154l48 -69zM417 534l-45 65l205 154l48 -69z" />
    <glyph glyph-name="macron" unicode="&#xaf;" horiz-adv-x="448" 
d="M148 558l15 86h348l-15 -86h-348z" />
    <glyph glyph-name="ogonek" unicode="&#x2db;" horiz-adv-x="248" 
d="M200 -182c-22 -10 -42 -15 -64 -15c-50 0 -91 28 -91 82c0 43 27 87 58 115h59c-21 -24 -43 -57 -43 -86c0 -27 17 -49 49 -49c10 0 28 2 42 9z" />
    <glyph glyph-name="ring" unicode="&#x2da;" horiz-adv-x="313" 
d="M371 617c0 -66 -63 -121 -127 -121c-52 0 -89 41 -89 91c0 64 61 122 126 122c53 0 90 -41 90 -92zM308 609c0 21 -15 38 -37 38c-28 0 -54 -24 -54 -52c0 -21 15 -38 38 -38c26 0 53 22 53 52z" />
    <glyph glyph-name="tilde" unicode="&#x2dc;" horiz-adv-x="457" 
d="M512 594c-36 -33 -76 -53 -114 -53c-55 0 -92 41 -136 41c-25 0 -48 -13 -69 -30l-34 67c34 27 75 48 115 48c57 0 90 -41 134 -41c23 0 49 12 74 33z" />
    </font>
</defs>
</svg>
